<?xml version="1.0" standalone="no"?>
<!DOCTYPE svg PUBLIC "-//W3C//DTD SVG 1.1//EN" "http://www.w3.org/Graphics/SVG/1.1/DTD/svg11.dtd">
<svg xmlns="http://www.w3.org/2000/svg">
<defs >
<font id="Nunito" horiz-adv-x="557" ><font-face
    font-family="Nunito"
    units-per-em="1000"
    panose-1="0 0 5 0 0 0 0 0 0 0"
    ascent="1011"
    descent="-353"
    alphabetic="0" />
<glyph unicode=" " glyph-name="space" horiz-adv-x="258" />
<glyph unicode="!" glyph-name="exclam" horiz-adv-x="229" d="M99 179T93 186T86 207L98 660Q98 684 113 697T151 710Q171 710 184 699T197 669L196 660L137 207Q135 193 127 186T109 179Q99 179 93 186ZM76 -5T60 10T44 51Q44 76 60 92T100 108Q123 108 138
92T154 51Q154 26 139 11T100 -5Q76 -5 60 10Z" />
<glyph unicode="&quot;" glyph-name="quotedbl" horiz-adv-x="421" d="M116 423T109 430T101 450L98 656Q97 682 110 696T147 710Q166 710 177 699T189 668Q189 659 188 654L155 450Q151 423 127 423Q116 423 109 430ZM316 423T309 430T301 450L298 656Q297 682
310 696T347 710Q366 710 377 699T389 668Q389 659 388 654L355 450Q351 423 327 423Q316 423 309 430Z" />
<glyph unicode="#" glyph-name="numbersign" horiz-adv-x="600" d="M420 472L374 241H528Q541 241 550 232T559 210Q559 198 550 190T528 182H363L331 19Q330 9 322 2T302 -5Q289 -5 280 4T271 26Q271 32 272 35L301 182H250L218 19Q216 8 208 2T188 -5Q175 -5
166 4T157 26Q157 32 158 35L187 182H65Q52 182 43 191T34 213Q34 225 43 233T65 241H198L243 472H85Q72 472 63 481T54 503Q54 515 63 523T85 531H254L285 689Q287 700 295 706T315 713Q331 713 340 702T346 673L318 531H368L399 689Q401 700 409 706T429 713Q443
713 451 705T460 682Q460 676 459 673L431 531H548Q562 531 570 523T579 500Q579 488 570 480T548 472H420ZM312 241L357 472H307L261 241H312Z" />
<glyph unicode="$" glyph-name="dollar" horiz-adv-x="600" d="M251 643T209 608T166 512Q166 474 189 450T245 411T339 378Q406 357 448 339T519 285T548 195Q548 139 521 95T443 23T325 -8L318 -83Q317 -100 308 -110T283 -120Q267 -120 257 -110T249 -83L255
-7Q133 3 53 67Q33 83 33 104Q33 119 42 130T65 141Q74 141 84 134Q131 97 180 80T291 62Q374 62 419 95T464 189Q464 222 443 243T389 278T302 309Q231 332 188 351T113 409T82 506Q82 564 111 610T192 683T312 713L318 788Q320 805 329 815T354 825Q370 825 380
815T388 788L382 710Q438 703 486 683T568 630Q581 618 581 602Q581 587 572 576T547 565Q534 565 521 575Q479 610 431 626T325 643Q251 643 209 608Z" />
<glyph unicode="%" glyph-name="percent" horiz-adv-x="930" d="M269 -18T250 -18Q237 -18 228 -9T219 13Q219 24 226 35L666 703Q679 723 699 723Q711 723 720 714T730 693Q730 683 722 670L282 2Q269 -18 250 -18ZM160 283T118 332T75 474Q75 587 122 650T251
714Q331 714 374 665T417 522Q417 409 370 346T240 283Q160 283 118 332ZM291 341T317 389T343 531Q343 595 321 625T251 656Q200 656 174 608T148 466Q148 401 170 371T241 341Q291 341 317 389ZM617 -7T574 42T531 184Q531 297 578 360T708 424Q788 424 830 375T873
232Q873 119 827 56T697 -7Q617 -7 574 42ZM748 51T774 99T800 241Q800 305 778 335T708 366Q657 366 631 318T605 176Q605 112 627 82T697 51Q748 51 774 99Z" />
<glyph unicode="&amp;" glyph-name="ampersand" horiz-adv-x="664" d="M634 39T634 26Q634 12 623 1T597 -10Q582 -10 569 4L494 88Q451 42 396 18T277 -7Q211 -7 160 16T80 80T51 176Q51 242 91 293T219 395Q174 446 157 482T139 557Q139 627 186 669T311 712Q384
712 427 674T470 571Q470 518 438 477T324 383L490 199Q530 278 537 386Q539 403 550 412T576 421Q591 421 600 412T608 384Q597 242 537 146L624 50Q634 39 634 26ZM269 650T243 625T216 557Q216 528 229 501T281 431Q348 472 373 501T399 567Q399 605 376 627T313
650Q269 650 243 625ZM381 59T449 138L262 346Q191 304 161 267T131 179Q131 124 171 92T281 59Q381 59 449 138Z" />
<glyph unicode="&apos;" glyph-name="quotesingle" horiz-adv-x="221" d="M116 423T109 430T101 450L98 656Q97 682 110 696T147 710Q166 710 177 699T189 668Q189 659 188 654L155 450Q151 423 127 423Q116 423 109 430Z" />
<glyph unicode="(" glyph-name="parenleft" horiz-adv-x="314" d="M102 1T102 186Q102 327 139 457T247 696Q259 715 280 715Q292 715 300 708T309 689Q309 682 304 672Q185 436 185 185Q185 11 239 -145Q241 -155 241 -158Q241 -172 232 -180T209 -189Q199 -189
191 -184T177 -167Q102 1 102 186Z" />
<glyph unicode=")" glyph-name="parenright" horiz-adv-x="314" d="M216 521T216 340Q216 200 179 70T71 -170Q58 -189 38 -189Q26 -189 18 -182T9 -163Q9 -156 14 -146Q133 83 133 341Q133 515 79 671Q77 681 77 684Q77 698 86 706T109 715Q119 715 127 710T141
693Q216 521 216 340Z" />
<glyph unicode="*" glyph-name="asterisk" horiz-adv-x="450" d="M429 565T438 556T447 534Q447 522 438 513T413 504L293 508L357 407Q363 398 363 388Q363 376 354 368T332 359Q314 359 304 377L248 483L192 376Q184 358 165 358Q153 358 144 367T134 388Q134
397 140 406L204 508L84 504Q68 503 59 512T50 534Q50 547 59 556T84 564L204 560L140 661Q134 672 134 680Q134 692 143 701T165 710Q182 710 192 692L248 585L304 691Q314 710 332 710Q344 710 353 701T363 680Q363 672 357 661L293 560L413 564Q429 565 438
556Z" />
<glyph unicode="+" glyph-name="plus" horiz-adv-x="600" d="M530 316T539 307T548 285Q548 272 539 263T515 253H332L318 73Q316 59 307 50T284 41Q271 41 263 50T256 73L270 253H90Q77 253 69 262T60 284Q60 297 69 306T93 316H276L290 496Q291 510 300 519T323
529Q337 529 344 520T351 496L337 316H517Q530 316 539 307Z" />
<glyph unicode="," glyph-name="comma" horiz-adv-x="229" d="M123 108T138 91T153 40Q153 -1 137 -38T91 -103Q80 -114 68 -114Q57 -114 50 -108T43 -91Q43 -80 53 -70Q82 -41 90 -2Q69 0 57 14T44 51Q44 77 59 92T98 108Q123 108 138 91Z" />
<glyph unicode="-" glyph-name="hyphen" horiz-adv-x="425" d="M85 233T76 241T67 265Q67 281 77 290T106 300H326Q343 300 352 291T362 267Q362 251 352 242T322 233H103Q85 233 76 241Z" />
<glyph unicode="." glyph-name="period" horiz-adv-x="229" d="M76 -5T60 10T44 51Q44 76 60 92T100 108Q123 108 138 92T154 51Q154 26 139 11T100 -5Q76 -5 60 10Z" />
<glyph unicode="/" glyph-name="slash" horiz-adv-x="283" d="M29 -53T20 -59T0 -65Q-13 -65 -24 -56T-35 -33Q-35 -24 -33 -20L267 729Q271 740 280 746T299 752Q313 752 323 744T334 721Q334 715 331 707L33 -42Q29 -53 20 -59Z" />
<glyph unicode="0" glyph-name="zero" horiz-adv-x="600" d="M179 -8T120 70T60 300Q60 430 91 523T181 664T323 713Q438 713 498 635T558 405Q558 209 489 101T294 -8Q179 -8 120 70ZM384 61T429 151T475 418Q475 533 438 588T322 644Q234 644 189 554T143 287Q143
172 181 117T297 61Q384 61 429 151Z" />
<glyph unicode="1" glyph-name="one" horiz-adv-x="600" d="M495 69T504 60T514 36Q514 19 504 10T475 0H143Q125 0 116 9T106 34Q106 50 116 59T145 69H271L314 604L210 541Q200 535 190 535Q175 535 165 546T154 573Q154 591 172 603L333 701Q350 711 367 711Q384
711 393 701T401 674L354 69H477Q495 69 504 60Z" />
<glyph unicode="2" glyph-name="two" horiz-adv-x="600" d="M530 69T530 38Q530 21 520 11T490 0H96Q80 0 71 9T61 32Q61 52 79 70L340 333Q400 393 425 438T451 533Q451 585 419 614T330 644Q279 644 235 628T146 576Q133 566 120 566Q108 566 100 575T92 597Q92
620 113 637Q155 672 213 692T334 713Q426 713 479 665T533 534Q533 471 502 414T395 282L179 69H496Q530 69 530 38Z" />
<glyph unicode="3" glyph-name="three" horiz-adv-x="600" d="M459 344T490 304T522 204Q522 141 493 93T409 19T280 -7Q213 -7 156 13T60 65Q45 77 45 96Q45 111 54 122T77 134Q87 134 101 125Q185 62 282 62Q357 62 399 98T441 202Q441 323 287 323H231Q218
323 210 333T201 358Q201 373 210 382T235 392H285Q362 392 406 430T451 536Q451 586 418 615T326 644Q232 644 146 576Q133 566 120 566Q108 566 100 575T92 597Q92 620 113 637Q155 672 213 692T334 713Q424 713 478 667T533 542Q533 479 499 431T403 360Q459
344 490 304Z" />
<glyph unicode="4" glyph-name="four" horiz-adv-x="600" d="M549 221T558 212T567 187Q567 172 557 163T528 153H451L441 34Q440 16 428 6T399 -5Q381 -5 370 6T360 37L369 153H79Q61 153 50 162T39 187Q39 203 52 219L416 691Q430 711 455 711Q472 711 482 701T492
671L456 221H531Q549 221 558 212ZM137 221H375L402 565L137 221Z" />
<glyph unicode="5" glyph-name="five" horiz-adv-x="600" d="M212 637L192 390Q221 415 259 428T339 442Q401 442 449 417T523 345T549 238Q549 165 518 110T431 24T300 -7Q239 -7 182 13T85 70Q69 83 69 102Q69 116 78 126T103 137Q117 137 131 127Q215 62 302
62Q378 62 423 108T468 232Q468 296 429 335T324 374Q276 374 238 357T168 302Q156 291 138 291Q123 291 114 301T106 328L132 665Q133 684 145 694T176 705H527Q545 705 554 696T564 672Q564 656 554 647T524 637H212Z" />
<glyph unicode="6" glyph-name="six" horiz-adv-x="599" d="M582 622T582 602Q582 588 573 578T551 567Q537 567 523 578Q489 609 447 626T357 644Q267 644 212 569T146 352L144 328Q170 381 220 411T332 442Q396 442 445 416T521 341T548 229Q548 161 518 107T435
23T316 -8Q194 -8 128 71T62 295Q62 422 98 516T201 662T358 713Q420 713 475 693T565 636Q582 622 582 602ZM248 374T204 328T160 210Q160 143 202 102T314 61Q382 61 424 106T467 226Q467 293 426 333T317 374Q248 374 204 328Z" />
<glyph unicode="7" glyph-name="seven" horiz-adv-x="600" d="M554 705T563 696T572 672Q572 658 562 640L198 14Q184 -10 160 -10Q145 -10 134 0T123 25Q123 37 130 48L473 636H136Q117 636 108 645T98 669Q98 686 108 695T138 705H537Q554 705 563 696Z" />
<glyph unicode="8" glyph-name="eight" horiz-adv-x="600" d="M489 340T519 298T549 191Q549 132 518 87T428 18T291 -7Q171 -7 107 42T42 183Q42 247 81 296T187 364Q138 384 112 423T85 517Q85 576 115 620T200 689T328 713Q438 713 498 667T559 538Q559 475
525 428T431 359Q489 340 519 298ZM249 645T208 611T166 512Q166 456 205 424T318 392Q395 392 436 428T477 529Q477 585 440 615T328 645Q249 645 208 611ZM375 62T421 96T468 195Q468 261 429 292T300 323Q214 323 169 289T123 185Q123 62 290 62Q375 62 421
96Z" />
<glyph unicode="9" glyph-name="nine" horiz-adv-x="600" d="M424 713T490 634T556 410Q556 283 520 189T417 43T260 -8Q198 -8 143 12T53 69Q36 83 36 103Q36 117 45 127T67 138Q80 138 94 127Q129 96 171 79T260 61Q351 61 406 136T471 354L473 378Q447 324
398 294T286 263Q222 263 173 290T97 365T70 477Q70 544 100 598T183 682T302 713Q424 713 490 634ZM370 331T414 377T458 495Q458 562 416 603T303 644Q235 644 193 599T151 479Q151 412 192 372T301 331Q370 331 414 377Z" />
<glyph unicode=":" glyph-name="colon" horiz-adv-x="229" d="M107 385T92 400T76 441Q76 466 91 481T131 497Q155 497 170 482T186 441Q186 417 171 401T131 385Q107 385 92 400ZM76 -5T60 10T44 51Q44 76 60 92T100 108Q123 108 138 92T154 51Q154 26 139 11T100
-5Q76 -5 60 10Z" />
<glyph unicode=";" glyph-name="semicolon" horiz-adv-x="229" d="M155 497T170 482T186 441Q186 417 171 401T131 385Q107 385 92 400T76 441Q76 466 91 481T131 497Q155 497 170 482ZM123 108T138 91T153 40Q153 -1 137 -38T91 -103Q80 -114 68 -114Q57 -114
50 -108T43 -91Q43 -80 53 -70Q82 -41 90 -2Q69 0 57 14T44 51Q44 77 59 92T98 108Q123 108 138 91Z" />
<glyph unicode="&lt;" glyph-name="less" horiz-adv-x="600" d="M524 518T532 518Q546 518 554 510T563 488Q563 479 558 472T544 461L136 284L516 108Q524 104 528 97T531 80Q530 67 520 59T495 50Q487 50 475 55L86 238Q58 250 60 284Q60 299 69 311T93 330L512
513Q524 518 532 518Z" />
<glyph unicode="=" glyph-name="equal" horiz-adv-x="600" d="M83 353T75 362T66 385Q66 398 76 407T100 416H524Q537 416 545 407T554 384Q554 371 544 362T520 353H96Q83 353 75 362ZM68 153T60 162T51 185Q51 198 60 207T84 216H508Q521 216 529 207T538 184Q538
171 529 162T505 153H81Q68 153 60 162Z" />
<glyph unicode="&gt;" glyph-name="greater" horiz-adv-x="600" d="M534 324T541 313T548 289Q548 272 539 258T514 238L95 55Q83 50 74 50Q60 50 51 58T43 80Q44 98 63 108L471 284L91 461Q75 469 75 488Q76 501 86 509T112 518Q120 518 132 513L521 330Q534
324 541 313Z" />
<glyph unicode="?" glyph-name="question" horiz-adv-x="443" d="M192 179T186 187T181 209Q184 253 198 288T232 350T283 411Q323 456 342 487T361 559Q361 598 333 621T253 644Q207 644 165 628T73 575Q59 566 50 566Q38 566 31 575T23 597Q23 619 42 635Q86
672 144 692T261 713Q346 713 395 674T445 568Q445 511 419 470T339 375Q291 325 265 288T230 202Q225 179 204 179Q192 179 186 187ZM169 -5T154 10T138 51Q138 76 153 92T193 108Q216 108 232 92T248 51Q248 27 233 11T193 -5Q169 -5 154 10Z" />
<glyph unicode="@" glyph-name="at" horiz-adv-x="926" d="M349 -152T253 -99T106 50T54 273Q54 405 109 504T261 657T478 711Q606 711 697 659T835 522T882 344Q882 246 853 184T778 93T681 64Q628 64 598 87T563 153H561Q536 112 499 88T411 64Q345 64 304 110T263
239Q263 307 289 367T364 463T474 499Q521 499 556 477T602 418H603L611 462Q613 474 622 481T644 488Q658 488 666 480T675 458Q675 453 674 450L633 216Q629 188 629 180Q629 146 645 132T693 118Q721 118 750 140T799 213T819 344Q819 423 781 493T666 606T478
650Q376 650 295 605T166 474T119 273Q119 163 162 81T286 -46T478 -91Q630 -91 715 -9Q729 4 744 4Q756 4 764 -5T772 -27Q772 -43 760 -54Q715 -99 642 -125T478 -152Q349 -152 253 -99ZM474 118T510 148T566 227T585 328Q585 384 558 413T483 443Q435 443 400
414T346 339T327 242Q327 183 355 151T424 118Q474 118 510 148Z" />
<glyph unicode="A" glyph-name="A" horiz-adv-x="727" d="M679 41T679 33Q679 16 667 5T639 -6Q613 -6 603 21L546 181H175L92 18Q86 7 77 1T57 -5Q42 -5 31 5T19 32Q19 43 24 52L351 681Q358 695 371 702T399 710Q414 710 426 702T445 678L676 48Q679 41 679
33ZM210 249H522L393 610L210 249Z" />
<glyph unicode="B" glyph-name="B" horiz-adv-x="674" d="M551 345T581 304T612 203Q612 107 548 54T370 0H113Q93 0 82 12T71 45L120 665Q121 684 133 694T163 705H396Q507 705 564 660T622 532Q622 470 590 426T494 360Q551 345 581 304ZM199 637L180 392H377Q456
392 498 426T540 525Q540 637 389 637H199ZM532 68T532 202Q532 324 379 324H175L155 68H367Q532 68 532 202Z" />
<glyph unicode="C" glyph-name="C" horiz-adv-x="677" d="M279 -8T211 32T106 146T69 323Q69 441 110 529T228 665T409 713Q485 713 547 692T650 630Q666 617 666 599Q666 584 657 573T633 562Q622 562 610 571Q569 607 522 624T410 642Q289 642 222 557T154 322Q154
198 213 131T382 63Q434 63 483 80T572 132Q585 142 597 142Q610 142 618 133T626 109Q626 90 610 77Q566 36 505 14T371 -8Q279 -8 211 32Z" />
<glyph unicode="D" glyph-name="D" horiz-adv-x="739" d="M93 0T82 12T71 45L120 665Q121 684 133 694T163 705H356Q515 705 601 620T687 381Q687 262 645 177T522 46T327 0H113Q93 0 82 12ZM323 70Q461 70 531 150T602 382Q602 635 349 635H200L156 70H323Z" />
<glyph unicode="E" glyph-name="E" horiz-adv-x="582" d="M555 705T564 696T574 672Q574 655 564 646T535 637H199L180 392H493Q511 392 520 383T530 359Q530 343 520 334T491 324H175L155 68H488Q505 68 514 59T524 35Q524 19 514 10T485 0H110Q90 0 80 11T71
42L120 665Q123 705 163 705H538Q555 705 564 696Z" />
<glyph unicode="F" glyph-name="F" d="M545 705T554 696T564 671Q564 654 554 645T525 636H200L181 393H483Q501 393 510 384T520 360Q520 343 510 334T481 324H175L152 34Q151 16 139 6T109 -5Q91 -5 80 6T70 37L120 665Q123 705 163 705H528Q545 705 554 696Z" />
<glyph unicode="G" glyph-name="G" horiz-adv-x="724" d="M338 643T278 604T185 492T153 319Q153 195 214 128T395 61Q479 61 558 88L575 303H433Q415 303 405 311T395 334Q395 349 405 358T433 367H613Q631 367 642 356T651 327L633 82Q631 58 623 46T595 29Q553
12 497 2T390 -8Q235 -8 152 77T68 316Q68 437 111 526T233 664T421 713Q494 713 553 693T653 634Q672 618 672 598Q672 584 663 573T640 562Q628 562 616 571Q572 608 526 625T421 643Q338 643 278 604Z" />
<glyph unicode="H" glyph-name="H" horiz-adv-x="758" d="M683 710T694 699T704 668L654 34Q653 16 642 6T612 -5Q594 -5 583 6T573 37L596 323H175L152 34Q151 16 139 6T110 -5Q92 -5 81 6T71 37L121 671Q122 689 133 699T163 710Q181 710 192 699T202 668L180
393H601L623 671Q624 689 636 699T665 710Q683 710 694 699Z" />
<glyph unicode="I" glyph-name="I" horiz-adv-x="256" d="M92 -5T81 6T71 37L121 671Q122 689 133 699T163 710Q182 710 193 699T203 668L153 34Q152 16 140 6T110 -5Q92 -5 81 6Z" />
<glyph unicode="J" glyph-name="J" horiz-adv-x="326" d="M-7 -6T-17 3T-27 30Q-27 45 -18 53T8 63L40 65Q90 69 119 100T152 188L191 669Q192 688 204 699T235 710Q254 710 264 699T273 669L235 187Q228 98 181 50T47 -3L15 -5Q-7 -6 -17 3Z" />
<glyph unicode="K" glyph-name="K" horiz-adv-x="628" d="M568 710T580 710Q594 710 604 699T615 674Q615 658 601 645L259 360L574 56Q584 46 584 33Q584 19 573 7T547 -5Q532 -5 520 8L177 336L153 34Q151 17 140 6T110 -5Q92 -5 81 7T71 37L121 671Q122 688
134 699T163 710Q181 710 192 698T203 668L180 382L555 699Q568 710 580 710Z" />
<glyph unicode="L" glyph-name="L" horiz-adv-x="540" d="M90 0T80 11T71 42L121 671Q122 689 134 699T164 710Q183 710 193 699T203 668L156 70H477Q495 70 504 61T514 36Q514 19 504 10T475 0H110Q90 0 80 11Z" />
<glyph unicode="M" glyph-name="M" horiz-adv-x="841" d="M770 711T779 701T787 674L736 32Q735 14 724 5T697 -5Q680 -5 670 6T661 35L702 544L452 132Q437 106 411 106Q384 106 372 134L187 542L147 32Q146 15 135 5T107 -5Q90 -5 80 6T71 35L121 669Q123 687
134 698T163 710Q190 710 202 681L417 196L710 685Q725 711 753 711Q770 711 779 701Z" />
<glyph unicode="N" glyph-name="N" horiz-adv-x="739" d="M666 710T676 699T686 669L636 35Q634 16 625 6T597 -5Q573 -5 561 14L190 567L147 34Q146 16 135 6T107 -5Q90 -5 80 6T70 37L120 669Q121 688 132 699T161 710Q183 710 196 691L566 140L609 671Q610
689 621 699T649 710Q666 710 676 699Z" />
<glyph unicode="O" glyph-name="O" horiz-adv-x="764" d="M286 -9T216 31T107 146T69 323Q69 441 109 529T224 666T398 714Q495 714 565 674T674 559T712 381Q712 264 672 176T557 39T383 -9Q286 -9 216 31ZM459 62T514 100T598 211T628 382Q628 508 568 575T398
643Q322 643 267 605T183 494T153 322Q153 197 213 130T383 62Q459 62 514 100Z" />
<glyph unicode="P" glyph-name="P" horiz-adv-x="645" d="M504 705T562 653T621 511Q621 402 555 346T371 289H172L152 34Q151 16 139 6T109 -5Q91 -5 80 6T70 37L120 665Q123 705 163 705H396Q504 705 562 653ZM540 357T540 507Q540 637 389 637H200L178 357H367Q540
357 540 507Z" />
<glyph unicode="Q" glyph-name="Q" horiz-adv-x="764" d="M712 242T656 144T493 11Q512 3 526 -13T556 -56L594 -128Q600 -139 600 -149Q600 -164 588 -174T559 -184Q548 -184 538 -178T521 -161L469 -65Q441 -10 363 -8Q274 -5 208 35T106 149T69 323Q69 441
109 529T224 666T398 714Q495 714 566 674T674 559T712 381Q712 242 656 144ZM459 62T514 100T598 211T628 382Q628 508 568 575T398 643Q322 643 267 605T183 494T153 322Q153 197 213 130T383 62Q459 62 514 100Z" />
<glyph unicode="R" glyph-name="R" horiz-adv-x="686" d="M607 49Q612 39 612 31Q612 16 599 5T570 -6Q559 -6 549 0T533 18L423 226Q401 267 374 282T298 298H173L153 34Q152 16 140 6T109 -5Q90 -5 80 6T71 38L120 665Q121 684 133 694T163 705H411Q519 705
577 657T635 517Q635 425 585 371T436 306Q458 298 475 281T509 231L607 49ZM384 366Q470 366 512 402T555 512Q555 576 518 606T405 637H199L178 366H384Z" />
<glyph unicode="S" glyph-name="S" horiz-adv-x="617" d="M145 -8T52 69Q32 85 32 107Q32 121 41 131T63 142Q73 142 84 135Q130 97 184 79T306 61Q392 61 438 93T484 183Q484 219 462 242T405 278T312 309Q238 330 192 350T114 409T81 513Q81 573 113 618T204
688T343 713Q416 713 479 691T584 630Q598 617 598 600Q598 585 589 575T565 564Q551 564 537 575Q500 607 450 625T342 644Q256 644 210 611T164 517Q164 477 188 452T247 413T346 379Q418 358 462 339T536 284T567 189Q567 98 497 45T304 -8Q145 -8 52 69Z" />
<glyph unicode="T" glyph-name="T" horiz-adv-x="598" d="M263 -5T252 6T242 37L289 635H75Q58 635 49 644T39 669Q39 686 49 695T78 705H591Q609 705 618 696T627 671Q627 635 588 635H371L324 34Q322 17 311 6T281 -5Q263 -5 252 6Z" />
<glyph unicode="U" glyph-name="U" horiz-adv-x="724" d="M217 -8T150 56T83 241Q83 265 84 278L116 671Q117 688 129 699T158 710Q176 710 187 699T197 668L166 279Q165 268 165 247Q165 154 211 108T351 62Q449 62 501 112T562 267L594 671Q596 688 607 699T636
710Q654 710 665 699T676 668L644 275Q633 133 559 63T349 -8Q217 -8 150 56Z" />
<glyph unicode="V" glyph-name="V" horiz-adv-x="691" d="M641 710T666 710Q681 710 693 701T705 676Q705 667 699 656L373 22Q366 8 354 1T327 -6Q312 -6 300 2T281 25L55 658Q52 666 52 672Q52 689 65 699T95 710Q122 710 130 686L335 103L631 689Q641 710 666 710Z" />
<glyph unicode="W" glyph-name="W" horiz-adv-x="1101" d="M1020 698T1030 704T1052 711Q1066 711 1076 702T1087 678Q1087 667 1083 658L811 23Q805 9 793 2T767 -6Q753 -6 742 2T726 26L577 576L339 23Q333 9 321 2T296 -6Q281 -6 270 2T254 26L81 659L79 671Q79
689 91 699T121 710Q134 710 144 703T158 682L306 117L546 680Q553 695 564 702T587 710Q600 710 610 702T625 680L774 115L1015 686Q1020 698 1030 704Z" />
<glyph unicode="X" glyph-name="X" horiz-adv-x="646" d="M581 711T597 711Q612 711 623 700T635 674Q635 659 624 647L380 360L592 58Q600 47 600 34Q600 18 588 7T559 -5Q540 -5 528 11L329 301L82 9Q70 -6 52 -6Q37 -6 26 4T15 30Q15 44 27 59L285 362L86 647Q78
660 78 670Q78 686 91 698T120 710Q138 710 150 694L337 421L567 696Q581 711 597 711Z" />
<glyph unicode="Y" glyph-name="Y" horiz-adv-x="601" d="M566 710T587 710Q601 710 611 700T622 677Q622 661 611 649L348 333L325 34Q324 16 312 6T283 -5Q265 -5 254 6T243 37L266 333L52 649Q44 660 44 673Q44 688 56 699T85 710Q104 710 115 693L311 402L551
691Q566 710 587 710Z" />
<glyph unicode="Z" glyph-name="Z" horiz-adv-x="590" d="M564 705T573 696T582 672Q582 655 571 641L129 69H508Q526 69 535 60T545 36Q545 19 535 10T506 0H57Q41 0 32 9T22 33Q22 49 34 64L476 636H108Q91 636 82 645T72 669Q72 705 111 705H549Q564 705 573 696Z" />
<glyph unicode="[" glyph-name="bracketleft" horiz-adv-x="314" d="M128 -180T104 -154T84 -78L138 603Q142 652 170 678T247 705H313Q329 705 338 698T348 676Q348 659 338 650T311 641H264Q221 641 218 596L164 -71Q161 -116 204 -116H250Q265 -116 274 -124T283
-146Q283 -163 273 -171T245 -180H177Q128 -180 104 -154Z" />
<glyph unicode="\" glyph-name="backslash" horiz-adv-x="282" d="M25 708Q24 711 24 717Q24 732 35 742T62 752Q73 752 82 745T94 725L273 -22Q274 -25 274 -31Q274 -45 263 -54T236 -64Q225 -64 216 -57T204 -37L25 708Z" />
<glyph unicode="]" glyph-name="bracketright" horiz-adv-x="314" d="M190 705T214 679T234 603L179 -78Q175 -127 148 -153T71 -180H4Q-11 -180 -20 -173T-30 -151Q-30 -134 -20 -125T7 -116H54Q97 -116 100 -71L153 596Q155 619 146 630T114 641H67Q53 641 44
649T35 671Q35 688 45 696T73 705H141Q190 705 214 679Z" />
<glyph unicode="^" glyph-name="asciicircum" horiz-adv-x="600" d="M530 176T530 173Q530 159 519 150T495 140Q477 140 471 157L325 550L117 157Q108 141 91 141Q79 141 70 149T60 170Q60 179 64 187L285 600Q292 613 304 621T331 629Q345 629 356 621T372 600L528
184Q530 176 530 173Z" />
<glyph unicode="_" glyph-name="underscore" horiz-adv-x="500" d="M-5 -53T-13 -46T-22 -27Q-21 -15 -11 -8T14 0H448Q463 0 471 -7T478 -26Q478 -38 469 -45T444 -53H9Q-5 -53 -13 -46Z" />
<glyph unicode="`" glyph-name="grave" horiz-adv-x="300" d="M60 701Q52 713 52 726Q52 741 63 751T88 761Q113 761 124 734L189 580Q192 574 192 568Q192 558 186 553T169 547Q152 547 142 561L60 701Z" />
<glyph unicode="a" glyph-name="a" horiz-adv-x="530" d="M463 499T463 332Q463 314 462 305L441 32Q440 14 429 5T401 -5Q383 -5 372 6T363 35L366 79Q344 38 306 16T217 -7Q144 -7 98 32T51 133Q51 188 80 220T173 268T346 283H382L384 312L385 331Q385 383
360 407T281 432Q209 432 126 383Q116 378 110 378Q98 378 90 387T82 410Q82 432 101 444Q137 469 187 484T287 499Q463 499 463 332ZM291 57T331 97T375 200L377 231H349Q266 231 220 223T153 195T133 140Q133 102 160 80T234 57Q291 57 331 97Z" />
<glyph unicode="b" glyph-name="b" horiz-adv-x="582" d="M391 499T438 470T511 388T537 263Q537 183 509 122T428 27T308 -7Q250 -7 208 18T143 89L139 35Q138 16 126 6T96 -5Q78 -5 68 5T58 35L109 674Q110 691 123 701T153 711Q171 711 181 702T190 674L170
415Q195 455 237 477T330 499Q391 499 438 470ZM372 60T413 114T454 263Q454 343 416 387T309 432Q237 432 196 378T155 228Q155 146 192 103T301 60Q372 60 413 114Z" />
<glyph unicode="c" glyph-name="c" horiz-adv-x="479" d="M204 -7T153 22T74 104T46 228Q46 310 76 371T162 465T294 499Q343 499 386 485T455 448Q470 436 470 417Q470 403 461 392T439 380Q431 380 422 386Q362 431 294 431Q216 431 173 377T130 227Q130 149
169 105T279 60Q314 60 343 71T401 104Q411 111 420 111Q432 111 439 102T447 79Q447 63 434 51Q405 24 362 9T272 -7Q204 -7 153 22Z" />
<glyph unicode="d" glyph-name="d" horiz-adv-x="582" d="M520 711T530 701T540 674L490 35Q489 16 477 6T447 -5Q430 -5 420 5T410 35L414 78Q389 38 346 16T253 -7Q192 -7 145 21T72 103T46 227Q46 308 74 369T155 465T275 499Q332 499 374 474T438 405L459
674Q460 691 472 701T502 711Q520 711 530 701ZM346 60T387 114T428 263Q428 345 391 388T282 432Q211 432 170 378T128 230Q128 149 166 105T274 60Q346 60 387 114Z" />
<glyph unicode="e" glyph-name="e" horiz-adv-x="527" d="M127 231V227Q127 147 166 103T281 59Q360 59 420 103Q430 110 440 110Q452 110 459 101T467 80Q467 62 451 47Q424 23 376 8T277 -7Q171 -7 109 57T46 229Q46 309 75 370T159 465T286 499Q384 499 436
441T488 271Q488 252 478 242T451 231H127ZM222 436T182 397T131 283H415Q418 358 385 397T289 436Q222 436 182 397Z" />
<glyph unicode="f" glyph-name="f" horiz-adv-x="328" d="M365 708T375 701T386 677Q386 646 352 643L323 641Q266 637 238 607T205 515L203 487H312Q328 487 336 479T345 456Q345 441 336 432T310 423H198L167 34Q166 15 154 5T125 -5Q108 -5 97 5T86 34L117
423H50Q34 423 26 431T17 454Q17 469 26 478T53 487H122L123 505Q130 602 180 650T325 705L345 706Q365 708 375 701Z" />
<glyph unicode="g" glyph-name="g" horiz-adv-x="586" d="M508 497T518 487T528 457L494 33Q486 -76 427 -131T258 -187Q202 -187 153 -173T68 -134Q48 -120 48 -101Q48 -87 57 -77T80 -67Q87 -67 94 -71Q134 -96 173 -108T260 -121Q403 -121 414 29L420 101Q397
61 354 38T258 15Q162 15 105 76T47 239Q47 315 75 374T156 466T277 499Q335 499 378 474T443 404L447 457Q449 476 461 486T491 497Q508 497 518 487ZM349 82T390 133T432 273Q432 349 394 390T285 432Q212 432 171 381T129 239Q129 163 167 123T276 82Q349 82
390 133Z" />
<glyph unicode="h" glyph-name="h" horiz-adv-x="568" d="M415 499T458 456T501 331Q501 313 500 304L479 35Q477 15 465 5T436 -5Q417 -5 407 5T398 35L419 299Q420 306 420 320Q420 431 313 431Q245 431 205 391T159 279L139 35Q138 15 126 5T96 -5Q78 -5 68
5T58 35L109 674Q110 691 123 701T153 711Q171 711 181 702T190 674L169 414Q195 455 237 477T333 499Q415 499 458 456Z" />
<glyph unicode="i" glyph-name="i" horiz-adv-x="232" d="M79 -5T68 5T58 35L93 459Q94 478 106 487T136 497Q153 497 164 488T174 459L139 35Q138 15 126 5T96 -5Q79 -5 68 5ZM125 602T110 616T95 653Q95 675 110 689T149 703Q173 703 188 689T203 653Q203 630
188 616T149 602Q125 602 110 616Z" />
<glyph unicode="j" glyph-name="j" horiz-adv-x="232" d="M-98 -184T-109 -175T-119 -151Q-119 -138 -111 -130T-85 -120L-56 -118Q-2 -114 24 -86T56 2L93 457Q94 477 106 487T135 497Q152 497 163 487T174 457L138 10Q131 -83 84 -129T-57 -181L-78 -183Q-98
-184 -109 -175ZM125 602T110 616T95 653Q95 675 110 689T149 703Q173 703 188 689T203 653Q203 630 188 616T149 602Q125 602 110 616Z" />
<glyph unicode="k" glyph-name="k" horiz-adv-x="500" d="M420 493T435 493Q449 493 459 483T470 458Q470 443 457 431L247 251L448 57Q458 46 458 33Q458 18 446 6T419 -6Q406 -6 394 6L156 232L140 33Q139 14 127 5T98 -5Q80 -5 69 6T59 36L109 672Q110 690
123 700T153 710Q171 710 181 700T190 669L158 265L409 482Q420 493 435 493Z" />
<glyph unicode="l" glyph-name="l" horiz-adv-x="232" d="M79 -5T68 5T58 35L109 673Q110 692 123 701T153 711Q170 711 180 702T190 673L139 35Q138 15 126 5T96 -5Q79 -5 68 5Z" />
<glyph unicode="m" glyph-name="m" horiz-adv-x="852" d="M707 499T746 457T785 333Q785 314 784 304L763 35Q762 15 750 5T720 -5Q703 -5 692 5T682 35L703 300Q704 308 704 324Q704 379 681 405T609 431Q548 431 512 391T471 277L452 35Q450 15 438 5T408 -5Q391
-5 380 5T371 35L392 300Q393 308 393 324Q393 379 370 405T298 431Q237 431 202 392T159 277L139 35Q138 15 126 5T96 -5Q79 -5 68 5T58 35L93 459Q94 477 106 487T136 497Q153 497 163 488T172 460L168 415Q218 499 321 499Q377 499 413 476T465 407Q490 451
533 475T631 499Q707 499 746 457Z" />
<glyph unicode="n" glyph-name="n" horiz-adv-x="568" d="M415 499T458 456T501 331Q501 313 500 304L479 35Q477 15 465 5T436 -5Q417 -5 407 5T398 35L419 299Q420 306 420 320Q420 431 313 431Q245 431 205 391T159 279L139 35Q138 15 126 5T96 -5Q78 -5 68
5T58 35L93 459Q94 477 106 487T136 497Q153 497 163 487T172 460L168 412Q193 453 236 476T333 499Q415 499 458 456Z" />
<glyph unicode="o" glyph-name="o" horiz-adv-x="555" d="M204 -7T153 22T74 104T46 229Q46 310 75 371T158 465T283 499Q352 499 403 470T482 387T510 262Q510 181 481 120T397 26T272 -7Q204 -7 153 22ZM346 60T386 115T427 265Q427 345 390 388T283 432Q210
432 169 376T128 226Q128 145 165 103T273 60Q346 60 386 115Z" />
<glyph unicode="p" glyph-name="p" horiz-adv-x="582" d="M391 499T438 470T511 388T537 264Q537 183 508 122T427 27T308 -7Q251 -7 208 18T144 88L125 -149Q124 -167 112 -176T82 -186Q64 -186 54 -177T44 -149L92 457Q94 477 106 487T135 497Q153 497 163 487T173
457L169 414Q193 454 235 476T329 499Q391 499 438 470ZM372 60T413 114T454 261Q454 342 416 387T309 432Q237 432 196 378T155 228Q155 146 192 103T300 60Q372 60 413 114Z" />
<glyph unicode="q" glyph-name="q" horiz-adv-x="582" d="M504 497T514 487T524 457L476 -149Q475 -166 462 -176T432 -186Q414 -186 404 -177T395 -149L413 78Q389 38 346 16T252 -7Q191 -7 144 22T71 104T45 228Q45 308 74 369T155 465T274 499Q332 499 375
474T439 402L443 457Q445 477 457 487T486 497Q504 497 514 487ZM345 60T386 114T427 263Q427 345 390 388T282 432Q210 432 169 378T128 228Q128 148 166 104T273 60Q345 60 386 114Z" />
<glyph unicode="r" glyph-name="r" horiz-adv-x="353" d="M357 499T366 491T376 466Q376 430 337 427L310 424Q237 417 201 381T159 278L139 35Q138 15 126 5T96 -5Q79 -5 68 5T58 35L93 459Q94 477 106 487T136 497Q153 497 162 488T171 460L167 408Q193 449
233 470T329 496L340 497Q357 499 366 491Z" />
<glyph unicode="s" glyph-name="s" horiz-adv-x="480" d="M174 -7T128 7T51 43Q31 56 31 78Q31 92 39 101T61 111Q70 111 80 105Q115 82 151 70T229 58Q346 58 346 130Q346 163 318 179T230 213Q178 228 147 242T93 282T70 353Q70 419 123 459T265 499Q311 499
354 484T423 445Q438 434 438 415Q438 402 430 392T409 382Q398 382 386 391Q329 433 263 433Q208 433 179 414T149 357Q149 324 177 308T264 275Q315 260 347 246T401 205T424 134Q424 69 370 31T224 -7Q174 -7 128 7Z" />
<glyph unicode="t" glyph-name="t" horiz-adv-x="340" d="M178 176Q177 169 177 156Q177 108 199 83T261 58Q274 58 286 59T304 61Q314 61 320 53T327 31Q327 10 310 2T248 -7Q176 -7 136 34T96 150Q96 164 97 172L116 423H50Q34 423 26 431T17 454Q17 470 26
478T53 487H121L130 601Q132 618 143 628T173 639Q192 639 202 628T211 599L202 487H312Q327 487 336 479T345 456Q345 440 336 432T310 423H197L178 176Z" />
<glyph unicode="u" glyph-name="u" horiz-adv-x="561" d="M483 497T493 487T502 457L468 32Q467 15 455 5T425 -5Q408 -5 398 4T389 31L393 79Q368 38 326 16T232 -7Q151 -7 109 35T67 160Q67 178 68 187L89 457Q91 476 103 486T133 497Q151 497 161 487T170 457L149
192Q148 185 148 171Q148 61 253 61Q318 61 357 101T401 212L421 457Q423 476 435 486T465 497Q483 497 493 487Z" />
<glyph unicode="v" glyph-name="v" horiz-adv-x="514" d="M451 492T474 492Q489 492 500 482T512 457Q512 449 507 439L289 25Q281 10 268 2T239 -6Q222 -6 209 3T189 29L38 441Q35 449 35 454Q35 470 48 480T77 491Q88 491 97 485T111 467L245 88L440 470Q451
492 474 492Z" />
<glyph unicode="w" glyph-name="w" horiz-adv-x="842" d="M758 492T782 492Q798 492 809 482T821 457Q821 448 817 440L628 26Q621 12 608 4T579 -4Q562 -4 549 4T531 30L430 376L275 26Q269 12 256 4T227 -4Q210 -4 197 5T178 30L56 442Q54 452 54 455Q54 472
66 482T95 493Q122 493 131 466L234 96L394 460Q401 476 414 484T440 493Q454 493 466 484T482 460L584 97L746 469Q758 492 782 492Z" />
<glyph unicode="x" glyph-name="x" horiz-adv-x="518" d="M439 492T455 492Q469 492 480 482T491 457Q491 443 479 431L309 250L460 57Q469 47 469 34Q469 18 457 7T428 -5Q410 -5 399 9L255 194L80 7Q67 -6 52 -6Q38 -6 27 4T16 30Q16 44 28 57L210 251L69 430Q60
442 60 454Q60 470 72 481T101 493Q118 493 130 478L262 307L425 478Q439 492 455 492Z" />
<glyph unicode="y" glyph-name="y" horiz-adv-x="514" d="M451 492T474 492Q489 492 500 482T512 457Q512 449 507 439L191 -162Q178 -186 154 -186Q140 -186 130 -177T119 -154Q119 -148 124 -136L198 5L38 441Q35 449 35 454Q35 470 48 480T77 491Q88 491 97
485T111 467L245 88L440 470Q451 492 474 492Z" />
<glyph unicode="z" glyph-name="z" horiz-adv-x="503" d="M456 487T464 478T473 454Q473 436 460 423L138 64H418Q434 64 443 56T452 33Q452 18 443 9T415 0H57Q42 0 34 9T25 31Q25 47 38 60L363 423H100Q84 423 76 431T67 454Q67 469 76 478T103 487H441Q456
487 464 478Z" />
<glyph unicode="{" glyph-name="braceleft" horiz-adv-x="351" d="M367 705T376 697T385 675Q385 659 375 650T350 641H301Q257 641 254 596L236 368Q232 324 209 297T155 263Q184 256 203 229T220 158L201 -71Q198 -116 241 -116H286Q301 -116 310 -124T320 -147Q320
-164 310 -172T283 -180H224Q174 -180 147 -157T120 -91L121 -78L139 149Q142 190 128 209T75 230Q59 231 51 239T43 262Q43 293 81 296Q120 298 137 316T157 376L174 603Q178 652 205 678T280 705H352Q367 705 376 697Z" />
<glyph unicode="|" glyph-name="bar" horiz-adv-x="261" d="M80 -185T70 -174T61 -145L126 670Q127 687 139 698T168 710Q184 710 194 699T204 670L139 -145Q138 -162 126 -173T97 -185Q80 -185 70 -174Z" />
<glyph unicode="}" glyph-name="braceright" horiz-adv-x="351" d="M312 293T312 264Q312 250 302 241T274 230Q235 228 218 209T197 150L179 -78Q176 -127 149 -153T74 -180H2Q-13 -180 -22 -172T-31 -150Q-31 -133 -21 -125T7 -116H53Q97 -116 100 -71L118 158Q122
202 145 228T200 262Q170 270 151 297T135 368L152 596Q156 641 113 641H67Q53 641 44 649T34 671Q34 688 44 696T70 705H130Q184 705 210 679T233 603L215 376Q212 335 226 317T279 296Q312 293 312 264Z" />
<glyph unicode="~" glyph-name="asciitilde" horiz-adv-x="600" d="M380 215T353 226T283 260Q250 278 232 286T194 295Q149 295 122 256Q109 239 92 239Q81 239 74 246T66 264Q66 274 72 284Q95 318 126 336T194 354Q226 354 254 343T323 309Q355 291 374 283T413
275Q456 275 485 313Q498 330 515 330Q526 330 533 323T541 305Q541 295 534 285Q486 215 412 215Q380 215 353 226Z" />
<glyph unicode="&#xa0;" glyph-name="uni00A0" horiz-adv-x="258" />
<glyph unicode="&#xa1;" glyph-name="exclamdown" horiz-adv-x="229" d="M107 384T92 399T76 440Q76 465 91 481T130 497Q154 497 170 481T186 440Q186 415 170 400T130 384Q107 384 92 399ZM59 -185T46 -171T36 -135L93 285Q94 298 102 305T121 312Q131 312 137
305T143 285L133 -135Q133 -158 119 -171T82 -185Q59 -185 46 -171Z" />
<glyph unicode="&#xa2;" glyph-name="cent" horiz-adv-x="600" d="M261 431T218 377T175 227Q175 149 213 105T324 60Q359 60 388 71T446 104Q456 111 465 111Q477 111 484 101T492 78Q492 61 479 51Q452 26 413 11T331 -7L324 -83Q323 -100 314 -110T289 -120Q273
-120 264 -110T255 -83L261 -2Q182 15 136 75T90 228Q90 341 146 412T301 497L307 574Q309 591 318 601T344 611Q360 611 369 601T377 574L371 497Q410 493 444 480T500 448Q515 436 515 417Q515 403 506 392T484 380Q476 380 467 386Q407 431 339 431Q261 431
218 377Z" />
<glyph unicode="&#xa3;" glyph-name="sterling" horiz-adv-x="600" d="M598 618T598 600Q598 586 589 576T566 566Q551 566 539 577Q507 608 465 626T380 644Q322 644 288 611T249 515L239 382H398Q410 382 417 374T425 354Q425 341 416 333T393 324H234L214 69H516Q533
69 542 61T552 36Q552 0 511 0H59Q24 0 24 34Q24 50 34 59T64 69H132L153 324H76Q64 324 57 332T49 352Q49 365 58 373T81 382H157L168 516Q175 608 231 660T379 713Q439 713 492 692T583 632Q598 618 598 600Z" />
<glyph unicode="&#xa4;" glyph-name="currency" horiz-adv-x="600" d="M100 34T93 42T86 61Q86 70 94 78L136 119Q91 173 91 250Q91 323 134 378L96 418Q86 427 86 439Q86 449 93 456T112 463Q121 463 131 453L170 414Q223 454 300 454Q377 454 431 414L470 453Q480
463 490 463Q500 463 507 456T515 438Q515 427 506 418L466 378Q487 351 498 318T510 250Q510 176 465 119L505 81Q515 70 515 58Q514 47 506 41T487 34Q478 34 470 44L429 84Q379 46 300 46Q226 46 171 83L132 45Q121 34 110 34Q100 34 93 42ZM347 97T380 118T431
175T449 250Q449 289 432 324T381 382T300 404Q253 404 220 382T169 325T151 250Q151 210 168 175T219 119T300 97Q347 97 380 118Z" />
<glyph unicode="&#xa5;" glyph-name="yen" horiz-adv-x="600" d="M563 710T582 710Q596 710 607 700T618 676Q618 661 609 651L387 385H517Q530 385 537 377T544 356Q544 343 535 335T513 326H348L341 234H505Q518 234 525 226T532 205Q532 192 523 184T501 175H336L325
37Q324 17 313 6T282 -5Q263 -5 253 6T243 37L254 175H89Q76 175 69 183T62 204Q62 217 71 225T93 234H259L266 326H101Q89 326 82 334T74 355Q74 368 83 376T105 385H237L58 650Q51 660 51 671Q51 686 63 697T91 709Q110 709 121 692L313 406L551 694Q563 710
582 710Z" />
<glyph unicode="&#xa6;" glyph-name="brokenbar" horiz-adv-x="261" d="M124 366T114 377T105 406L126 670Q127 687 139 698T168 710Q184 710 194 699T204 670L183 406Q182 389 170 378T141 366Q124 366 114 377ZM80 -185T70 -174T61 -145L82 119Q84 136 96 147T125
159Q141 159 151 148T160 119L139 -145Q138 -162 126 -173T97 -185Q80 -185 70 -174Z" />
<glyph unicode="&#xa7;" glyph-name="section" horiz-adv-x="537" d="M492 158T474 122T424 59Q436 31 436 -3Q436 -87 382 -136T235 -186Q178 -186 131 -173T50 -134Q35 -123 35 -105Q35 -91 44 -80T66 -69Q74 -69 83 -75Q118 -98 153 -109T233 -120Q292 -120
324 -91T356 -10Q356 25 337 51T275 102L182 154Q110 195 79 235T48 327Q48 369 66 406T115 469Q104 497 104 529Q104 612 159 661T306 712Q352 712 397 697T470 660Q483 650 483 633Q483 620 474 609T452 598Q443 598 433 605Q376 646 304 646Q249 646 217 616T184
535Q184 501 203 476T265 425L357 372Q429 329 460 289T492 197Q492 158 474 122ZM362 138T387 111Q414 146 414 187Q414 219 393 245T319 304L230 357Q182 386 152 416Q125 381 125 339Q125 308 147 281T221 222L310 169Q362 138 387 111Z" />
<glyph unicode="&#xa8;" glyph-name="dieresis" horiz-adv-x="300" d="M76 605T62 618T48 653Q48 674 62 687T97 700Q118 700 132 687T147 653Q147 631 133 618T97 605Q76 605 62 618ZM248 605T234 618T219 653Q219 674 233 687T269 700Q290 700 304 687T318 653Q318
632 304 619T269 605Q248 605 234 618Z" />
<glyph unicode="&#xa9;" glyph-name="copyright" horiz-adv-x="815" d="M317 -5T235 42T106 171T59 353Q59 453 106 534T235 663T417 710Q517 710 598 663T727 535T774 353Q774 253 727 172T598 43T417 -5Q317 -5 235 42ZM504 40T575 81T686 194T727 353Q727 440
687 511T575 624T417 665Q329 665 258 624T147 512T106 353Q106 266 146 194T258 81T417 40Q504 40 575 81ZM332 137T277 195T222 353Q222 452 277 510T424 568Q500 568 558 523Q572 513 572 495Q572 483 566 474T547 464Q538 464 524 472Q495 490 475 498T427
507Q365 507 333 468T300 353Q300 277 332 238T427 198Q455 198 475 206T524 233Q538 241 547 241Q559 241 565 232T572 210Q572 193 558 182Q507 137 424 137Q332 137 277 195Z" />
<glyph unicode="&#xaa;" glyph-name="ordfeminine" horiz-adv-x="330" d="M263 710T292 679T316 585L304 441Q303 425 293 416T270 407Q254 407 245 416T236 441L238 458Q209 407 148 407Q105 407 78 431T50 494Q50 541 90 561T224 582H246L247 599Q252 656 193
656Q151 656 105 631Q99 628 94 628Q85 628 79 635T72 653Q72 671 89 681Q110 694 141 702T202 710Q263 710 292 679ZM198 458T219 478T242 530L243 544H222Q164 544 141 534T118 499Q118 481 132 470T166 458Q198 458 219 478Z" />
<glyph unicode="&#xab;" glyph-name="guillemotleft" horiz-adv-x="441" d="M64 241Q58 253 58 264Q58 277 67 290L158 425Q170 444 193 444Q205 444 214 437T223 418Q223 411 217 400L138 266L193 131Q196 124 196 116Q196 103 187 95T164 86Q143 86 133 106L64
241ZM245 241Q239 253 239 264Q239 277 248 290L339 425Q351 444 374 444Q386 444 395 437T404 418Q404 411 398 400L319 266L374 131Q377 124 377 116Q377 103 368 95T345 86Q324 86 314 106L245 241Z" />
<glyph unicode="&#xac;" glyph-name="logicalnot" horiz-adv-x="600" d="M492 149T485 158T478 182L492 358H98Q85 358 77 367T68 389Q68 402 78 410T102 419H526Q539 419 548 410T556 387L539 182Q538 168 528 159T504 149Q492 149 485 158Z" />
<glyph unicode="&#xad;" glyph-name="uni00AD" horiz-adv-x="425" d="M85 233T76 241T67 265Q67 281 77 290T106 300H326Q343 300 352 291T362 267Q362 251 352 242T322 233H103Q85 233 76 241Z" />
<glyph unicode="&#xae;" glyph-name="registered" horiz-adv-x="815" d="M517 710T598 663T727 535T774 353Q774 253 727 172T598 43T417 -5Q317 -5 236 42T107 171T59 353Q59 453 106 534T235 663T417 710Q517 710 598 663ZM504 40T575 81T686 193T727 353Q727
441 687 512T575 624T417 665Q330 665 259 624T147 512T106 353Q106 265 147 194T259 81T417 40Q504 40 575 81ZM597 393T567 360T481 318Q497 314 508 303T532 273L581 186Q587 177 587 168Q587 155 576 146T549 136Q526 136 515 156L446 277Q435 296 422 303T387
311H337L327 174Q326 156 315 147T287 137Q271 137 262 146T253 174L281 527Q282 544 292 554T320 564H450Q522 564 559 534T597 445Q597 393 567 360ZM482 368T503 387T524 442Q524 475 504 490T440 505H352L341 368H441Q482 368 503 387Z" />
<glyph unicode="&#xaf;" glyph-name="overscore" horiz-adv-x="300" d="M43 622T35 630T26 652Q26 667 36 675T64 683H307Q323 683 331 675T340 653Q340 638 330 630T302 622H59Q43 622 35 630Z" />
<glyph unicode="&#xb0;" glyph-name="degree" horiz-adv-x="365" d="M168 420T135 439T82 491T63 565Q63 606 82 639T134 691T208 710Q248 710 281 691T334 639T353 565Q353 524 334 491T282 439T208 420Q168 420 135 439ZM247 473T272 499T297 565Q297 605 272
631T208 657Q170 657 145 631T120 565Q120 525 145 499T208 473Q247 473 272 499Z" />
<glyph unicode="&#xb1;" glyph-name="plusminus" horiz-adv-x="600" d="M534 357T542 349T551 327Q551 313 541 304T516 295H335L324 157Q323 143 313 133T289 123Q276 123 269 132T262 156L273 295H93Q80 295 72 304T63 327Q64 340 73 348T97 357H279L290 496Q291
510 300 519T324 529Q337 529 344 520T351 496L340 357H521Q534 357 542 349ZM510 63T518 54T527 31Q527 18 517 9T493 0H69Q56 0 48 9T40 32Q40 45 49 54T73 63H497Q510 63 518 54Z" />
<glyph unicode="&#xb2;" glyph-name="uni00B2" horiz-adv-x="380" d="M332 342T340 334T349 312Q349 299 340 291T315 282H82Q68 282 60 290T51 311Q51 327 64 340L216 492Q247 524 260 547T274 595Q274 622 257 636T210 650Q161 650 110 614Q101 608 93 608Q83
608 76 616T69 635Q69 652 84 664Q109 685 145 697T218 709Q279 709 313 680T348 600Q348 563 329 529T266 453L150 342H317Q332 342 340 334Z" />
<glyph unicode="&#xb3;" glyph-name="uni00B3" horiz-adv-x="380" d="M305 489T323 465T342 405Q342 346 302 312T192 278Q154 278 117 290T55 322Q40 332 40 350Q40 362 47 371T67 380Q75 380 83 375Q139 337 186 337Q226 337 249 354T272 405Q272 438 253 452T194
467H163Q148 467 140 474T132 493Q132 506 140 515T164 525H188Q230 525 253 543T277 596Q277 622 260 636T211 650Q165 650 109 613Q102 608 92 608Q82 608 75 616T68 635Q68 651 83 663Q109 684 146 696T220 709Q279 709 313 681T348 606Q348 566 328 539T273
499Q305 489 323 465Z" />
<glyph unicode="&#xb4;" glyph-name="acute" horiz-adv-x="300" d="M192 546T182 546Q173 546 167 552T160 568Q160 578 165 584L287 739Q301 759 321 759Q336 759 348 749T360 723Q360 708 346 694L202 556Q192 546 182 546Z" />
<glyph unicode="&#xb5;" glyph-name="uni00B5" horiz-adv-x="561" d="M483 497T493 487T503 457L469 32Q468 15 455 5T425 -5Q408 -5 398 4T389 31L393 79Q368 38 326 16T233 -7Q173 -7 136 21L122 -148Q121 -165 109 -175T78 -185Q61 -185 51 -176T41 -149L90
457Q91 476 103 486T133 497Q151 497 161 487T171 457L149 192Q148 185 148 172Q148 61 253 61Q317 61 356 101T402 212L422 457Q423 476 435 486T465 497Q483 497 493 487Z" />
<glyph unicode="&#xb6;" glyph-name="paragraph" horiz-adv-x="582" d="M229 -185T220 -175T213 -151L249 310Q167 312 116 361T65 492Q65 587 122 646T281 705H498Q513 705 522 695T530 671L465 -151Q463 -165 453 -175T428 -185Q414 -185 405 -175T398 -151L461
644H342L280 -151Q278 -165 268 -175T243 -185Q229 -185 220 -175Z" />
<glyph unicode="&#xb7;" glyph-name="middot" horiz-adv-x="229" d="M93 209T77 225T61 266Q61 291 77 306T117 322Q140 322 155 307T171 266Q171 241 156 225T117 209Q93 209 77 225Z" />
<glyph unicode="&#xb8;" glyph-name="cedilla" horiz-adv-x="300" d="M199 -41T219 -59T239 -108Q239 -147 207 -170T121 -193Q85 -193 49 -181Q32 -174 32 -159Q32 -148 41 -140T64 -136Q94 -145 121 -145Q179 -145 179 -110Q179 -97 170 -90T145 -83Q131 -83
118 -87T100 -92Q92 -92 87 -86T82 -73L101 20H157L145 -42Q151 -41 166 -41Q199 -41 219 -59Z" />
<glyph unicode="&#xb9;" glyph-name="uni00B9" horiz-adv-x="380" d="M338 342T338 313Q338 282 301 282H137Q104 282 104 312Q104 342 140 342H187L210 623L158 592Q151 588 143 588Q131 588 123 597T114 618Q114 636 133 647L223 699Q238 708 254 708Q269 708
278 698T286 671L259 342H304Q338 342 338 313Z" />
<glyph unicode="&#xba;" glyph-name="ordmasculine" horiz-adv-x="342" d="M122 407T84 445T46 545Q46 620 89 665T205 710Q269 710 307 672T346 571Q346 497 303 452T186 407Q122 407 84 445ZM229 464T251 492T274 570Q274 610 256 631T203 653Q162 653 140 625T118
547Q118 507 136 486T188 464Q229 464 251 492Z" />
<glyph unicode="&#xbb;" glyph-name="guillemotright" horiz-adv-x="439" d="M91 86T71 86Q58 86 49 93T40 112Q40 121 46 131L126 265L69 400Q66 408 66 414Q66 428 76 436T99 445Q120 445 130 425L200 290Q206 280 206 268Q206 255 196 241L104 105Q91 86 71
86ZM272 86T252 86Q239 86 230 93T221 112Q221 121 227 131L307 265L250 400Q247 408 247 414Q247 428 257 436T280 445Q301 445 311 425L381 290Q387 280 387 268Q387 255 377 241L285 105Q272 86 252 86Z" />
<glyph unicode="&#xbc;" glyph-name="onequarter" horiz-adv-x="933" d="M338 342T338 313Q338 282 301 282H137Q104 282 104 312Q104 342 140 342H187L210 623L158 592Q151 588 143 588Q131 588 123 597T114 618Q114 636 133 647L223 699Q238 708 254 708Q269
708 278 698T286 671L259 342H304Q338 342 338 313ZM271 -19T252 -19Q239 -19 230 -10T220 12Q220 21 228 34L667 705Q680 724 699 724Q712 724 721 715T731 693Q731 684 723 671L284 0Q271 -19 252 -19ZM905 140T905 113Q905 99 896 91T871 83H836L832 31Q830
14 820 5T794 -4Q778 -4 770 5T762 31L766 83H603Q588 83 580 91T572 112Q572 126 583 142L793 410Q805 426 826 426Q841 426 851 417T860 389L841 140H873Q905 140 905 113ZM647 140H771L785 317L647 140Z" />
<glyph unicode="&#xbd;" glyph-name="onehalf" horiz-adv-x="933" d="M338 342T338 313Q338 282 301 282H137Q104 282 104 312Q104 342 140 342H187L210 623L158 592Q151 588 143 588Q131 588 123 597T114 618Q114 636 133 647L223 699Q238 708 254 708Q269 708
278 698T286 671L259 342H304Q338 342 338 313ZM271 -19T252 -19Q239 -19 230 -10T220 12Q220 21 228 34L667 705Q680 724 699 724Q712 724 721 715T731 693Q731 684 723 671L284 0Q271 -19 252 -19ZM863 60T871 52T880 30Q880 17 871 9T846 0H613Q599 0 591 8T582
29Q582 45 595 58L747 210Q778 242 791 265T805 313Q805 340 788 354T741 368Q692 368 641 332Q632 326 624 326Q614 326 607 334T600 353Q600 370 615 382Q640 403 676 415T749 427Q810 427 844 398T879 318Q879 281 860 247T797 171L681 60H848Q863 60 871 52Z"
/>
<glyph unicode="&#xbe;" glyph-name="threequarters" horiz-adv-x="933" d="M305 489T323 465T342 405Q342 346 302 312T192 278Q154 278 117 290T55 322Q40 333 40 350Q40 362 47 371T67 380Q75 380 83 375Q139 337 186 337Q226 337 249 354T272 405Q272 438
253 452T194 467H163Q148 467 140 474T132 493Q132 506 140 515T164 525H188Q230 525 253 543T277 596Q277 622 260 636T211 650Q165 650 109 613Q101 608 92 608Q82 608 75 616T68 635Q68 651 83 663Q109 684 146 696T220 709Q279 709 313 681T348 606Q348 566
328 539T273 499Q305 489 323 465ZM271 -19T252 -19Q239 -19 230 -10T220 12Q220 21 228 34L667 705Q680 724 699 724Q712 724 721 715T731 693Q731 684 723 671L284 0Q271 -19 252 -19ZM905 140T905 113Q905 99 896 91T871 83H836L832 31Q830 14 820 5T794 -4Q778
-4 770 5T762 31L766 83H603Q588 83 580 91T572 112Q572 126 583 142L793 410Q805 426 826 426Q841 426 851 417T860 389L841 140H873Q905 140 905 113ZM647 140H771L785 317L647 140Z" />
<glyph unicode="&#xbf;" glyph-name="questiondown" horiz-adv-x="443" d="M227 384T212 400T196 440Q196 465 211 481T251 497Q275 497 290 481T306 440Q306 416 291 400T251 384Q227 384 212 400ZM102 -187T52 -147T2 -43Q2 -5 16 25T50 77T105 131Q152 173
178 207T214 289Q216 299 223 305T241 312Q266 312 264 282Q259 222 233 182T161 97Q122 59 104 32T85 -33Q85 -72 113 -95T193 -118Q238 -118 282 -101T373 -48Q384 -40 393 -40Q405 -40 412 -49T420 -73Q420 -94 403 -108Q360 -145 304 -166T188 -187Q102 -187
52 -147Z" />
<glyph unicode="&#xc0;" glyph-name="Agrave" horiz-adv-x="727" d="M679 41T679 33Q679 16 667 5T639 -6Q613 -6 603 21L546 181H175L92 18Q86 7 77 1T57 -5Q42 -5 31 5T19 32Q19 43 24 52L351 681Q358 695 371 702T399 710Q414 710 426 702T445 678L676 48Q679
41 679 33ZM210 249H522L393 610L210 249ZM295 870Q285 881 285 894Q285 907 295 916T318 925Q339 925 350 904L415 794Q419 787 419 781Q419 772 412 766T396 760Q382 760 374 771L295 870Z" />
<glyph unicode="&#xc1;" glyph-name="Aacute" horiz-adv-x="727" d="M679 41T679 33Q679 16 667 5T639 -6Q613 -6 603 21L546 181H175L92 18Q86 7 77 1T57 -5Q42 -5 31 5T19 32Q19 43 24 52L351 681Q358 695 371 702T399 710Q414 710 426 702T445 678L676 48Q679
41 679 33ZM210 249H522L393 610L210 249ZM424 760T414 760Q406 760 400 766T394 780Q394 788 400 797L477 904Q491 924 511 924Q525 924 534 915T544 893Q544 878 530 864L437 771Q424 760 414 760Z" />
<glyph unicode="&#xc2;" glyph-name="Acircumflex" horiz-adv-x="727" d="M679 41T679 33Q679 16 667 5T639 -6Q613 -6 603 21L546 181H175L92 18Q86 7 77 1T57 -5Q42 -5 31 5T19 32Q19 43 24 52L351 681Q358 695 371 702T399 710Q414 710 426 702T445 678L676
48Q679 41 679 33ZM210 249H522L393 610L210 249ZM326 759T312 759Q300 759 291 767T282 787Q282 797 291 807L379 905Q396 923 419 923Q442 923 455 905L524 809Q531 799 531 789Q531 777 522 769T501 760Q484 760 472 779L416 868L340 774Q326 759 312 759Z"
/>
<glyph unicode="&#xc3;" glyph-name="Atilde" horiz-adv-x="727" d="M679 41T679 33Q679 16 667 5T639 -6Q613 -6 603 21L546 181H175L92 18Q86 7 77 1T57 -5Q42 -5 31 5T19 32Q19 43 24 52L351 681Q358 695 371 702T399 710Q414 710 426 702T445 678L676 48Q679
41 679 33ZM210 249H522L393 610L210 249ZM461 788T444 794T401 813Q361 834 342 834Q325 834 315 827T294 807Q288 799 283 795T271 791Q262 791 257 797T252 815Q252 833 264 852T297 883T346 896Q363 896 380 890T423 871Q463 850 482 850Q499 850 509 857T530
877Q541 893 552 893Q562 893 567 887T572 869Q572 851 560 832T527 801T478 788Q461 788 444 794Z" />
<glyph unicode="&#xc4;" glyph-name="Adieresis" horiz-adv-x="727" d="M679 41T679 33Q679 16 667 5T639 -6Q613 -6 603 21L546 181H175L92 18Q86 7 77 1T57 -5Q42 -5 31 5T19 32Q19 43 24 52L351 681Q358 695 371 702T399 710Q414 710 426 702T445 678L676 48Q679
41 679 33ZM210 249H522L393 610L210 249ZM305 794T291 807T277 842Q277 863 291 876T326 890Q347 890 361 877T376 842Q376 820 362 807T326 794Q305 794 291 807ZM477 794T463 807T448 842Q448 863 462 876T498 890Q519 890 533 877T547 842Q547 821 533 808T498
794Q477 794 463 807Z" />
<glyph unicode="&#xc5;" glyph-name="Aring" horiz-adv-x="727" d="M679 41T679 33Q679 16 667 5T639 -6Q613 -6 603 21L546 181H175L92 18Q86 7 77 1T57 -5Q42 -5 31 5T19 32Q19 43 24 52L354 686Q330 699 316 722T302 773Q302 815 332 843T404 872Q446 872 475
844T505 773Q505 742 489 718T444 682L676 48Q679 41 679 33ZM383 823T369 809T355 773Q355 752 369 738T404 723Q425 723 438 737T452 773Q452 794 439 808T404 823Q383 823 369 809ZM210 249H522L393 610L210 249Z" />
<glyph unicode="&#xc6;" glyph-name="AE" horiz-adv-x="991" d="M964 705T973 696T983 671Q983 655 973 646T944 636H544L577 392H902Q920 392 929 383T939 359Q939 343 929 334T900 324H586L621 69H896Q914 69 924 60T934 35Q934 19 924 10T894 0H591Q574 0 563
8T550 31L530 181H193L83 17Q68 -6 44 -6Q29 -6 18 3T7 28Q7 42 17 56L445 680Q464 705 495 705H947Q964 705 973 696ZM238 249H521L474 600L238 249Z" />
<glyph unicode="&#xc7;" glyph-name="Ccedilla" horiz-adv-x="677" d="M666 617T666 599Q666 584 657 573T633 562Q622 562 610 571Q569 607 522 624T410 642Q289 642 222 557T154 322Q154 198 213 131T382 63Q434 63 483 80T572 132Q585 142 597 142Q610 142
618 133T626 109Q626 90 610 77Q523 -4 384 -8L377 -42Q383 -41 398 -41Q431 -41 451 -59T471 -108Q471 -147 439 -170T353 -193Q317 -193 281 -181Q264 -174 264 -159Q264 -148 273 -140T296 -136Q326 -145 353 -145Q411 -145 411 -110Q411 -97 402 -90T377 -83Q363
-83 350 -87T332 -92Q324 -92 319 -86T314 -73L328 -6Q208 8 139 95T69 323Q69 441 110 529T228 665T409 713Q485 713 547 692T650 630Q666 617 666 599Z" />
<glyph unicode="&#xc8;" glyph-name="Egrave" horiz-adv-x="582" d="M555 705T564 696T574 672Q574 655 564 646T535 637H199L180 392H493Q511 392 520 383T530 359Q530 343 520 334T491 324H175L155 68H488Q505 68 514 59T524 35Q524 19 514 10T485 0H110Q90
0 80 11T71 42L120 665Q123 705 163 705H538Q555 705 564 696ZM255 870Q245 881 245 894Q245 907 255 916T278 925Q299 925 310 904L375 794Q379 787 379 781Q379 772 372 766T356 760Q342 760 334 771L255 870Z" />
<glyph unicode="&#xc9;" glyph-name="Eacute" horiz-adv-x="582" d="M555 705T564 696T574 672Q574 655 564 646T535 637H199L180 392H493Q511 392 520 383T530 359Q530 343 520 334T491 324H175L155 68H488Q505 68 514 59T524 35Q524 19 514 10T485 0H110Q90
0 80 11T71 42L120 665Q123 705 163 705H538Q555 705 564 696ZM384 760T374 760Q366 760 360 766T354 780Q354 788 360 797L437 904Q451 924 471 924Q485 924 494 915T504 893Q504 878 490 864L397 771Q384 760 374 760Z" />
<glyph unicode="&#xca;" glyph-name="Ecircumflex" horiz-adv-x="582" d="M555 705T564 696T574 672Q574 655 564 646T535 637H199L180 392H493Q511 392 520 383T530 359Q530 343 520 334T491 324H175L155 68H488Q505 68 514 59T524 35Q524 19 514 10T485 0H110Q90
0 80 11T71 42L120 665Q123 705 163 705H538Q555 705 564 696ZM286 759T272 759Q260 759 251 767T242 787Q242 797 251 807L339 905Q356 923 379 923Q402 923 415 905L484 809Q491 799 491 789Q491 777 482 769T461 760Q444 760 432 779L376 868L300 774Q286 759
272 759Z" />
<glyph unicode="&#xcb;" glyph-name="Edieresis" horiz-adv-x="582" d="M555 705T564 696T574 672Q574 655 564 646T535 637H199L180 392H493Q511 392 520 383T530 359Q530 343 520 334T491 324H175L155 68H488Q505 68 514 59T524 35Q524 19 514 10T485 0H110Q90
0 80 11T71 42L120 665Q123 705 163 705H538Q555 705 564 696ZM265 794T251 807T237 842Q237 863 251 876T286 890Q307 890 321 877T336 842Q336 820 322 807T286 794Q265 794 251 807ZM437 794T423 807T408 842Q408 863 422 876T458 890Q479 890 493 877T507 842Q507
821 493 808T458 794Q437 794 423 807Z" />
<glyph unicode="&#xcc;" glyph-name="Igrave" horiz-adv-x="256" d="M92 -5T81 6T71 37L121 671Q122 689 133 699T163 710Q182 710 193 699T203 668L153 34Q152 16 140 6T110 -5Q92 -5 81 6ZM59 870Q49 881 49 894Q49 907 59 916T82 925Q103 925 114 904L179 794Q183
787 183 781Q183 772 176 766T160 760Q146 760 138 771L59 870Z" />
<glyph unicode="&#xcd;" glyph-name="Iacute" horiz-adv-x="256" d="M92 -5T81 6T71 37L121 671Q122 689 133 699T163 710Q182 710 193 699T203 668L153 34Q152 16 140 6T110 -5Q92 -5 81 6ZM188 760T178 760Q170 760 164 766T158 780Q158 788 164 797L241 904Q255
924 275 924Q289 924 298 915T308 893Q308 878 294 864L201 771Q188 760 178 760Z" />
<glyph unicode="&#xce;" glyph-name="Icircumflex" horiz-adv-x="256" d="M92 -5T81 6T71 37L121 671Q122 689 133 699T163 710Q182 710 193 699T203 668L153 34Q152 16 140 6T110 -5Q92 -5 81 6ZM90 759T76 759Q64 759 55 767T46 787Q46 797 55 807L143 905Q160
923 183 923Q206 923 219 905L288 809Q295 799 295 789Q295 777 286 769T265 760Q248 760 236 779L180 868L104 774Q90 759 76 759Z" />
<glyph unicode="&#xcf;" glyph-name="Idieresis" horiz-adv-x="256" d="M92 -5T81 6T71 37L121 671Q122 689 133 699T163 710Q182 710 193 699T203 668L153 34Q152 16 140 6T110 -5Q92 -5 81 6ZM69 794T55 807T41 842Q41 863 55 876T90 890Q111 890 125 877T140
842Q140 820 126 807T90 794Q69 794 55 807ZM241 794T227 807T212 842Q212 863 226 876T262 890Q283 890 297 877T311 842Q311 821 297 808T262 794Q241 794 227 807Z" />
<glyph unicode="&#xd0;" glyph-name="Eth" horiz-adv-x="752" d="M528 705T614 620T700 381Q700 262 658 177T535 46T340 0H126Q106 0 95 12T85 45L107 324H47Q29 324 19 333T9 357Q9 373 19 382T49 391H112L133 665Q134 684 146 694T176 705H369Q528 705 614
620ZM474 70T544 150T615 382Q615 507 552 571T363 635H213L194 391H353Q372 391 381 382T391 358Q391 342 381 333T352 324H189L169 70H336Q474 70 544 150Z" />
<glyph unicode="&#xd1;" glyph-name="Ntilde" horiz-adv-x="739" d="M666 710T676 699T686 669L636 35Q634 16 625 6T597 -5Q573 -5 561 14L190 567L147 34Q146 16 135 6T107 -5Q90 -5 80 6T70 37L120 669Q121 688 132 699T161 710Q183 710 196 691L566 140L609
671Q610 689 621 699T649 710Q666 710 676 699ZM466 788T449 794T406 813Q366 834 347 834Q330 834 320 827T299 807Q293 799 288 795T276 791Q267 791 262 797T257 815Q257 833 269 852T302 883T351 896Q368 896 385 890T428 871Q468 850 487 850Q504 850 514
857T535 877Q546 893 557 893Q567 893 572 887T577 869Q577 851 565 832T532 801T483 788Q466 788 449 794Z" />
<glyph unicode="&#xd2;" glyph-name="Ograve" horiz-adv-x="764" d="M286 -9T216 31T107 146T69 323Q69 441 109 529T224 666T398 714Q495 714 565 674T674 559T712 381Q712 264 672 176T557 39T383 -9Q286 -9 216 31ZM459 62T514 100T598 211T628 382Q628 508
568 575T398 643Q322 643 267 605T183 494T153 322Q153 197 213 130T383 62Q459 62 514 100ZM313 870Q303 881 303 894Q303 907 313 916T336 925Q357 925 368 904L433 794Q437 787 437 781Q437 772 430 766T414 760Q400 760 392 771L313 870Z" />
<glyph unicode="&#xd3;" glyph-name="Oacute" horiz-adv-x="764" d="M286 -9T216 31T107 146T69 323Q69 441 109 529T224 666T398 714Q495 714 565 674T674 559T712 381Q712 264 672 176T557 39T383 -9Q286 -9 216 31ZM459 62T514 100T598 211T628 382Q628 508
568 575T398 643Q322 643 267 605T183 494T153 322Q153 197 213 130T383 62Q459 62 514 100ZM442 760T432 760Q424 760 418 766T412 780Q412 788 418 797L495 904Q509 924 529 924Q543 924 552 915T562 893Q562 878 548 864L455 771Q442 760 432 760Z" />
<glyph unicode="&#xd4;" glyph-name="Ocircumflex" horiz-adv-x="764" d="M286 -9T216 31T107 146T69 323Q69 441 109 529T224 666T398 714Q495 714 565 674T674 559T712 381Q712 264 672 176T557 39T383 -9Q286 -9 216 31ZM459 62T514 100T598 211T628 382Q628
508 568 575T398 643Q322 643 267 605T183 494T153 322Q153 197 213 130T383 62Q459 62 514 100ZM344 759T330 759Q318 759 309 767T300 787Q300 797 309 807L397 905Q414 923 437 923Q460 923 473 905L542 809Q549 799 549 789Q549 777 540 769T519 760Q502 760
490 779L434 868L358 774Q344 759 330 759Z" />
<glyph unicode="&#xd5;" glyph-name="Otilde" horiz-adv-x="764" d="M286 -9T216 31T107 146T69 323Q69 441 109 529T224 666T398 714Q495 714 565 674T674 559T712 381Q712 264 672 176T557 39T383 -9Q286 -9 216 31ZM459 62T514 100T598 211T628 382Q628 508
568 575T398 643Q322 643 267 605T183 494T153 322Q153 197 213 130T383 62Q459 62 514 100ZM479 788T462 794T419 813Q379 834 360 834Q343 834 333 827T312 807Q306 799 301 795T289 791Q280 791 275 797T270 815Q270 833 282 852T315 883T364 896Q381 896 398
890T441 871Q481 850 500 850Q517 850 527 857T548 877Q559 893 570 893Q580 893 585 887T590 869Q590 851 578 832T545 801T496 788Q479 788 462 794Z" />
<glyph unicode="&#xd6;" glyph-name="Odieresis" horiz-adv-x="764" d="M286 -9T216 31T107 146T69 323Q69 441 109 529T224 666T398 714Q495 714 565 674T674 559T712 381Q712 264 672 176T557 39T383 -9Q286 -9 216 31ZM459 62T514 100T598 211T628 382Q628
508 568 575T398 643Q322 643 267 605T183 494T153 322Q153 197 213 130T383 62Q459 62 514 100ZM323 794T309 807T295 842Q295 863 309 876T344 890Q365 890 379 877T394 842Q394 820 380 807T344 794Q323 794 309 807ZM495 794T481 807T466 842Q466 863 480 876T516
890Q537 890 551 877T565 842Q565 821 551 808T516 794Q495 794 481 807Z" />
<glyph unicode="&#xd7;" glyph-name="multiply" horiz-adv-x="600" d="M521 489T521 479Q521 465 509 451L346 286L501 117Q509 109 509 98Q509 83 497 71Q489 63 477 63Q464 63 453 74L301 239L138 74Q129 63 114 63Q101 63 92 73Q86 81 86 90Q86 105 98 117L261
283L106 451Q98 459 98 472Q98 487 109 497Q118 506 131 506Q144 506 154 496L306 330L469 496Q478 506 492 506Q505 506 515 496Q521 489 521 479Z" />
<glyph unicode="&#xd8;" glyph-name="Oslash" horiz-adv-x="764" d="M712 546T712 381Q712 264 672 176T557 39T383 -9Q289 -9 217 30L181 -23Q170 -40 151 -40Q138 -40 129 -31T119 -9Q119 1 126 12L164 69Q118 112 94 176T69 323Q69 441 109 529T224 666T398
714Q494 714 565 674L601 728Q612 746 631 746Q644 746 654 737T664 714Q664 703 657 693L618 635Q712 546 712 381ZM153 202T208 135L524 612Q471 643 398 643Q322 643 267 605T183 494T153 322Q153 202 208 135ZM459 62T514 100T598 211T628 382Q628 500 574
568L258 92Q309 62 383 62Q459 62 514 100Z" />
<glyph unicode="&#xd9;" glyph-name="Ugrave" horiz-adv-x="724" d="M217 -8T150 56T83 241Q83 265 84 278L116 671Q117 688 129 699T158 710Q176 710 187 699T197 668L166 279Q165 268 165 247Q165 154 211 108T351 62Q449 62 501 112T562 267L594 671Q596 688
607 699T636 710Q654 710 665 699T676 668L644 275Q633 133 559 63T349 -8Q217 -8 150 56ZM293 870Q283 881 283 894Q283 907 293 916T316 925Q337 925 348 904L413 794Q417 787 417 781Q417 772 410 766T394 760Q380 760 372 771L293 870Z" />
<glyph unicode="&#xda;" glyph-name="Uacute" horiz-adv-x="724" d="M217 -8T150 56T83 241Q83 265 84 278L116 671Q117 688 129 699T158 710Q176 710 187 699T197 668L166 279Q165 268 165 247Q165 154 211 108T351 62Q449 62 501 112T562 267L594 671Q596 688
607 699T636 710Q654 710 665 699T676 668L644 275Q633 133 559 63T349 -8Q217 -8 150 56ZM422 760T412 760Q404 760 398 766T392 780Q392 788 398 797L475 904Q489 924 509 924Q523 924 532 915T542 893Q542 878 528 864L435 771Q422 760 412 760Z" />
<glyph unicode="&#xdb;" glyph-name="Ucircumflex" horiz-adv-x="724" d="M217 -8T150 56T83 241Q83 265 84 278L116 671Q117 688 129 699T158 710Q176 710 187 699T197 668L166 279Q165 268 165 247Q165 154 211 108T351 62Q449 62 501 112T562 267L594 671Q596
688 607 699T636 710Q654 710 665 699T676 668L644 275Q633 133 559 63T349 -8Q217 -8 150 56ZM324 759T310 759Q298 759 289 767T280 787Q280 797 289 807L377 905Q394 923 417 923Q440 923 453 905L522 809Q529 799 529 789Q529 777 520 769T499 760Q482 760
470 779L414 868L338 774Q324 759 310 759Z" />
<glyph unicode="&#xdc;" glyph-name="Udieresis" horiz-adv-x="724" d="M217 -8T150 56T83 241Q83 265 84 278L116 671Q117 688 129 699T158 710Q176 710 187 699T197 668L166 279Q165 268 165 247Q165 154 211 108T351 62Q449 62 501 112T562 267L594 671Q596
688 607 699T636 710Q654 710 665 699T676 668L644 275Q633 133 559 63T349 -8Q217 -8 150 56ZM303 794T289 807T275 842Q275 863 289 876T324 890Q345 890 359 877T374 842Q374 820 360 807T324 794Q303 794 289 807ZM475 794T461 807T446 842Q446 863 460 876T496
890Q517 890 531 877T545 842Q545 821 531 808T496 794Q475 794 461 807Z" />
<glyph unicode="&#xdd;" glyph-name="Yacute" horiz-adv-x="601" d="M566 710T587 710Q601 710 611 700T622 677Q622 661 611 649L348 333L325 34Q324 16 312 6T283 -5Q265 -5 254 6T243 37L266 333L52 649Q44 660 44 673Q44 688 56 699T85 710Q104 710 115 693L311
402L551 691Q566 710 587 710ZM360 760T350 760Q342 760 336 766T330 780Q330 788 336 797L413 904Q427 924 447 924Q461 924 470 915T480 893Q480 878 466 864L373 771Q360 760 350 760Z" />
<glyph unicode="&#xde;" glyph-name="Thorn" horiz-adv-x="645" d="M498 550T553 504T609 370Q609 274 549 221T374 167H162L152 34Q151 16 139 6T110 -5Q92 -5 81 6T71 37L121 671Q122 689 133 699T163 710Q181 710 192 699T202 668L193 550H396Q498 550 553
504ZM529 234T529 366Q529 426 494 454T389 482H187L168 234H370Q529 234 529 366Z" />
<glyph unicode="&#xdf;" glyph-name="germandbls" horiz-adv-x="616" d="M340 -7T296 7T221 45Q205 57 205 76Q205 90 214 100T236 111Q246 111 256 104Q291 80 323 70T393 59Q442 59 470 80T499 138Q499 168 475 184T399 219Q356 235 329 248T284 286T265 348Q265
389 286 417T349 480Q385 510 402 531T419 581Q419 611 395 628T329 645Q189 645 176 484L139 35Q137 16 126 6T96 -5Q77 -5 67 5T58 35L94 482Q103 592 164 651T331 710Q408 710 452 678T497 589Q497 545 474 514T408 447Q376 420 361 401T345 360Q345 331 368
316T442 281Q486 265 513 251T559 210T578 144Q578 76 526 35T387 -7Q340 -7 296 7Z" />
<glyph unicode="&#xe0;" glyph-name="agrave" horiz-adv-x="530" d="M463 499T463 332Q463 314 462 305L441 32Q440 14 429 5T401 -5Q383 -5 372 6T363 35L366 79Q344 38 306 16T217 -7Q144 -7 98 32T51 133Q51 188 80 220T173 268T346 283H382L384 312L385 331Q385
383 360 407T281 432Q209 432 126 383Q116 378 110 378Q98 378 90 387T82 410Q82 432 101 444Q137 469 187 484T287 499Q463 499 463 332ZM291 57T331 97T375 200L377 231H349Q266 231 220 223T153 195T133 140Q133 102 160 80T234 57Q291 57 331 97ZM184 701Q176
713 176 726Q176 741 187 751T212 761Q237 761 248 734L313 580Q316 574 316 568Q316 558 310 553T293 547Q276 547 266 561L184 701Z" />
<glyph unicode="&#xe1;" glyph-name="aacute" horiz-adv-x="530" d="M463 499T463 332Q463 314 462 305L441 32Q440 14 429 5T401 -5Q383 -5 372 6T363 35L366 79Q344 38 306 16T217 -7Q144 -7 98 32T51 133Q51 188 80 220T173 268T346 283H382L384 312L385 331Q385
383 360 407T281 432Q209 432 126 383Q116 378 110 378Q98 378 90 387T82 410Q82 432 101 444Q137 469 187 484T287 499Q463 499 463 332ZM291 57T331 97T375 200L377 231H349Q266 231 220 223T153 195T133 140Q133 102 160 80T234 57Q291 57 331 97ZM316 546T306
546Q297 546 291 552T284 568Q284 578 289 584L411 739Q425 759 445 759Q460 759 472 749T484 723Q484 708 470 694L326 556Q316 546 306 546Z" />
<glyph unicode="&#xe2;" glyph-name="acircumflex" horiz-adv-x="530" d="M463 499T463 332Q463 314 462 305L441 32Q440 14 429 5T401 -5Q383 -5 372 6T363 35L366 79Q344 38 306 16T217 -7Q144 -7 98 32T51 133Q51 188 80 220T173 268T346 283H382L384 312L385
331Q385 383 360 407T281 432Q209 432 126 383Q116 378 110 378Q98 378 90 387T82 410Q82 432 101 444Q137 469 187 484T287 499Q463 499 463 332ZM291 57T331 97T375 200L377 231H349Q266 231 220 223T153 195T133 140Q133 102 160 80T234 57Q291 57 331 97ZM224
546T206 546Q194 546 185 555T175 576Q175 587 182 597L273 733Q289 758 315 758Q327 758 337 752T353 733L423 595Q427 587 427 578Q427 565 417 556T393 546Q374 546 365 566L310 694L236 565Q224 546 206 546Z" />
<glyph unicode="&#xe3;" glyph-name="atilde" horiz-adv-x="530" d="M463 499T463 332Q463 314 462 305L441 32Q440 14 429 5T401 -5Q383 -5 372 6T363 35L366 79Q344 38 306 16T217 -7Q144 -7 98 32T51 133Q51 188 80 220T173 268T346 283H382L384 312L385 331Q385
383 360 407T281 432Q209 432 126 383Q116 378 110 378Q98 378 90 387T82 410Q82 432 101 444Q137 469 187 484T287 499Q463 499 463 332ZM291 57T331 97T375 200L377 231H349Q266 231 220 223T153 195T133 140Q133 102 160 80T234 57Q291 57 331 97ZM353 591T336
600T294 626Q275 640 262 646T238 653Q222 653 213 645T190 619Q177 597 166 597Q157 597 152 604T146 622Q146 640 159 662T194 700T241 716Q260 716 277 707T319 681Q338 667 351 661T376 654Q393 654 403 663T423 688Q431 699 436 704T448 710Q467 710 467 685Q467
667 454 645T419 607T372 591Q353 591 336 600Z" />
<glyph unicode="&#xe4;" glyph-name="adieresis" horiz-adv-x="530" d="M463 499T463 332Q463 314 462 305L441 32Q440 14 429 5T401 -5Q383 -5 372 6T363 35L366 79Q344 38 306 16T217 -7Q144 -7 98 32T51 133Q51 188 80 220T173 268T346 283H382L384 312L385
331Q385 383 360 407T281 432Q209 432 126 383Q116 378 110 378Q98 378 90 387T82 410Q82 432 101 444Q137 469 187 484T287 499Q463 499 463 332ZM291 57T331 97T375 200L377 231H349Q266 231 220 223T153 195T133 140Q133 102 160 80T234 57Q291 57 331 97ZM200
605T186 618T172 653Q172 674 186 687T221 700Q242 700 256 687T271 653Q271 631 257 618T221 605Q200 605 186 618ZM372 605T358 618T343 653Q343 674 357 687T393 700Q414 700 428 687T442 653Q442 632 428 619T393 605Q372 605 358 618Z" />
<glyph unicode="&#xe5;" glyph-name="aring" horiz-adv-x="530" d="M463 499T463 332Q463 314 462 305L441 32Q440 14 429 5T401 -5Q383 -5 372 6T363 35L366 79Q344 38 306 16T217 -7Q144 -7 98 32T51 133Q51 188 80 220T173 268T346 283H382L384 312L385 331Q385
383 360 407T281 432Q209 432 126 383Q116 378 110 378Q98 378 90 387T82 410Q82 432 101 444Q137 469 187 484T287 499Q463 499 463 332ZM291 57T331 97T375 200L377 231H349Q266 231 220 223T153 195T133 140Q133 102 160 80T234 57Q291 57 331 97ZM264 553T235
581T205 652Q205 694 234 722T306 751Q348 751 377 723T407 652Q407 610 378 582T306 553Q264 553 235 581ZM327 602T340 616T354 652Q354 673 341 687T306 702Q285 702 272 688T258 652Q258 631 271 617T306 602Q327 602 340 616Z" />
<glyph unicode="&#xe6;" glyph-name="ae" horiz-adv-x="853" d="M459 231V227Q459 147 498 103T614 59Q648 59 682 70T745 103Q755 110 766 110Q778 110 785 101T793 80Q793 62 777 47Q750 24 703 9T611 -7Q536 -7 485 25T410 117Q385 58 335 26T220 -7Q145 -7
98 32T51 133Q51 188 80 220T173 268T346 283H384L386 312Q387 319 387 333Q387 383 362 407T283 432Q207 432 126 383Q116 378 109 378Q97 378 90 387T82 410Q82 432 101 444Q138 469 188 484T291 499Q410 499 446 418Q476 457 519 478T618 499Q711 499 762 441T813
271Q813 251 803 241T776 231H459ZM554 436T514 397T463 283H741Q744 358 711 397T619 436Q554 436 514 397ZM291 57T331 98T378 206L380 231H349Q261 231 215 222T151 193T133 139Q133 102 160 80T232 57Q291 57 331 98Z" />
<glyph unicode="&#xe7;" glyph-name="ccedilla" horiz-adv-x="479" d="M216 431T173 377T130 227Q130 149 169 105T279 60Q314 60 343 71T401 104Q411 111 420 111Q432 111 439 102T447 79Q447 63 434 51Q405 25 363 10T275 -7L268 -42Q274 -41 289 -41Q322 -41
342 -59T362 -108Q362 -147 330 -170T244 -193Q208 -193 172 -181Q155 -174 155 -159Q155 -148 164 -140T187 -136Q217 -145 244 -145Q302 -145 302 -110Q302 -97 293 -90T268 -83Q254 -83 241 -87T223 -92Q215 -92 210 -86T205 -73L219 -2Q138 13 92 74T46 228Q46
310 76 371T162 465T294 499Q343 499 386 485T455 448Q470 436 470 417Q470 403 461 392T439 380Q431 380 422 386Q362 431 294 431Q216 431 173 377Z" />
<glyph unicode="&#xe8;" glyph-name="egrave" horiz-adv-x="527" d="M127 231V227Q127 147 166 103T281 59Q360 59 420 103Q430 110 440 110Q452 110 459 101T467 80Q467 62 451 47Q424 23 376 8T277 -7Q171 -7 109 57T46 229Q46 309 75 370T159 465T286 499Q384
499 436 441T488 271Q488 252 478 242T451 231H127ZM222 436T182 397T131 283H415Q418 358 385 397T289 436Q222 436 182 397ZM186 701Q178 713 178 726Q178 741 189 751T214 761Q239 761 250 734L315 580Q318 574 318 568Q318 558 312 553T295 547Q278 547 268
561L186 701Z" />
<glyph unicode="&#xe9;" glyph-name="eacute" horiz-adv-x="527" d="M127 231V227Q127 147 166 103T281 59Q360 59 420 103Q430 110 440 110Q452 110 459 101T467 80Q467 62 451 47Q424 23 376 8T277 -7Q171 -7 109 57T46 229Q46 309 75 370T159 465T286 499Q384
499 436 441T488 271Q488 252 478 242T451 231H127ZM222 436T182 397T131 283H415Q418 358 385 397T289 436Q222 436 182 397ZM318 546T308 546Q299 546 293 552T286 568Q286 578 291 584L413 739Q427 759 447 759Q462 759 474 749T486 723Q486 708 472 694L328
556Q318 546 308 546Z" />
<glyph unicode="&#xea;" glyph-name="ecircumflex" horiz-adv-x="527" d="M127 231V227Q127 147 166 103T281 59Q360 59 420 103Q430 110 440 110Q452 110 459 101T467 80Q467 62 451 47Q424 23 376 8T277 -7Q171 -7 109 57T46 229Q46 309 75 370T159 465T286
499Q384 499 436 441T488 271Q488 252 478 242T451 231H127ZM222 436T182 397T131 283H415Q418 358 385 397T289 436Q222 436 182 397ZM226 546T208 546Q196 546 187 555T177 576Q177 587 184 597L275 733Q291 758 317 758Q329 758 339 752T355 733L425 595Q429
587 429 578Q429 565 419 556T395 546Q376 546 367 566L312 694L238 565Q226 546 208 546Z" />
<glyph unicode="&#xeb;" glyph-name="edieresis" horiz-adv-x="527" d="M127 231V227Q127 147 166 103T281 59Q360 59 420 103Q430 110 440 110Q452 110 459 101T467 80Q467 62 451 47Q424 23 376 8T277 -7Q171 -7 109 57T46 229Q46 309 75 370T159 465T286 499Q384
499 436 441T488 271Q488 252 478 242T451 231H127ZM222 436T182 397T131 283H415Q418 358 385 397T289 436Q222 436 182 397ZM202 605T188 618T174 653Q174 674 188 687T223 700Q244 700 258 687T273 653Q273 631 259 618T223 605Q202 605 188 618ZM374 605T360
618T345 653Q345 674 359 687T395 700Q416 700 430 687T444 653Q444 632 430 619T395 605Q374 605 360 618Z" />
<glyph unicode="&#xec;" glyph-name="igrave" horiz-adv-x="232" d="M79 -5T68 5T58 35L93 459Q94 478 106 487T136 497Q153 497 164 488T174 459L139 35Q138 15 126 5T96 -5Q79 -5 68 5ZM26 701Q18 713 18 726Q18 741 29 751T54 761Q79 761 90 734L155 580Q158
574 158 568Q158 558 152 553T135 547Q118 547 108 561L26 701Z" />
<glyph unicode="&#xed;" glyph-name="iacute" horiz-adv-x="232" d="M79 -5T68 5T58 35L93 459Q94 478 106 487T136 497Q153 497 164 488T174 459L139 35Q138 15 126 5T96 -5Q79 -5 68 5ZM158 546T148 546Q139 546 133 552T126 568Q126 578 131 584L253 739Q267
759 287 759Q302 759 314 749T326 723Q326 708 312 694L168 556Q158 546 148 546Z" />
<glyph unicode="&#xee;" glyph-name="icircumflex" horiz-adv-x="232" d="M79 -5T68 5T58 35L93 459Q94 478 106 487T136 497Q153 497 164 488T174 459L139 35Q138 15 126 5T96 -5Q79 -5 68 5ZM66 546T48 546Q36 546 27 555T17 576Q17 587 24 597L115 733Q131
758 157 758Q169 758 179 752T195 733L265 595Q269 587 269 578Q269 565 259 556T235 546Q216 546 207 566L152 694L78 565Q66 546 48 546Z" />
<glyph unicode="&#xef;" glyph-name="idieresis" horiz-adv-x="232" d="M79 -5T68 5T58 35L93 459Q94 478 106 487T136 497Q153 497 164 488T174 459L139 35Q138 15 126 5T96 -5Q79 -5 68 5ZM42 605T28 618T14 653Q14 674 28 687T63 700Q84 700 98 687T113 653Q113
631 99 618T63 605Q42 605 28 618ZM214 605T200 618T185 653Q185 674 199 687T235 700Q256 700 270 687T284 653Q284 632 270 619T235 605Q214 605 200 618Z" />
<glyph unicode="&#xf0;" glyph-name="eth" horiz-adv-x="559" d="M514 661T516 661Q527 661 534 653T541 635Q541 616 522 610L435 579Q518 476 518 321Q518 154 452 74T270 -7Q167 -7 106 52T44 210Q44 283 73 338T156 424T278 455Q334 455 376 434T442 373Q433
478 364 554L220 503Q214 501 210 501Q199 501 192 509T184 528Q184 536 189 543T203 553L320 594Q278 627 215 649Q203 653 197 661T190 680Q190 692 199 701T222 711Q226 711 234 709Q330 679 395 620L506 659Q514 661 516 661ZM345 60T385 109T426 244Q426 311
388 350T281 389Q208 389 167 340T126 208Q126 137 163 99T271 60Q345 60 385 109Z" />
<glyph unicode="&#xf1;" glyph-name="ntilde" horiz-adv-x="568" d="M415 499T458 456T501 331Q501 313 500 304L479 35Q477 15 465 5T436 -5Q417 -5 407 5T398 35L419 299Q420 306 420 320Q420 431 313 431Q245 431 205 391T159 279L139 35Q138 15 126 5T96 -5Q78
-5 68 5T58 35L93 459Q94 477 106 487T136 497Q153 497 163 487T172 460L168 412Q193 453 236 476T333 499Q415 499 458 456ZM364 591T347 600T305 626Q286 640 273 646T249 653Q233 653 224 645T201 619Q188 597 177 597Q168 597 163 604T157 622Q157 640 170
662T205 700T252 716Q271 716 288 707T330 681Q349 667 362 661T387 654Q404 654 414 663T434 688Q442 699 447 704T459 710Q478 710 478 685Q478 667 465 645T430 607T383 591Q364 591 347 600Z" />
<glyph unicode="&#xf2;" glyph-name="ograve" horiz-adv-x="555" d="M204 -7T153 22T74 104T46 229Q46 310 75 371T158 465T283 499Q352 499 403 470T482 387T510 262Q510 181 481 120T397 26T272 -7Q204 -7 153 22ZM346 60T386 115T427 265Q427 345 390 388T283
432Q210 432 169 376T128 226Q128 145 165 103T273 60Q346 60 386 115ZM187 701Q179 713 179 726Q179 741 190 751T215 761Q240 761 251 734L316 580Q319 574 319 568Q319 558 313 553T296 547Q279 547 269 561L187 701Z" />
<glyph unicode="&#xf3;" glyph-name="oacute" horiz-adv-x="555" d="M204 -7T153 22T74 104T46 229Q46 310 75 371T158 465T283 499Q352 499 403 470T482 387T510 262Q510 181 481 120T397 26T272 -7Q204 -7 153 22ZM346 60T386 115T427 265Q427 345 390 388T283
432Q210 432 169 376T128 226Q128 145 165 103T273 60Q346 60 386 115ZM319 546T309 546Q300 546 294 552T287 568Q287 578 292 584L414 739Q428 759 448 759Q463 759 475 749T487 723Q487 708 473 694L329 556Q319 546 309 546Z" />
<glyph unicode="&#xf4;" glyph-name="ocircumflex" horiz-adv-x="555" d="M204 -7T153 22T74 104T46 229Q46 310 75 371T158 465T283 499Q352 499 403 470T482 387T510 262Q510 181 481 120T397 26T272 -7Q204 -7 153 22ZM346 60T386 115T427 265Q427 345 390
388T283 432Q210 432 169 376T128 226Q128 145 165 103T273 60Q346 60 386 115ZM227 546T209 546Q197 546 188 555T178 576Q178 587 185 597L276 733Q292 758 318 758Q330 758 340 752T356 733L426 595Q430 587 430 578Q430 565 420 556T396 546Q377 546 368 566L313
694L239 565Q227 546 209 546Z" />
<glyph unicode="&#xf5;" glyph-name="otilde" horiz-adv-x="555" d="M204 -7T153 22T74 104T46 229Q46 310 75 371T158 465T283 499Q352 499 403 470T482 387T510 262Q510 181 481 120T397 26T272 -7Q204 -7 153 22ZM346 60T386 115T427 265Q427 345 390 388T283
432Q210 432 169 376T128 226Q128 145 165 103T273 60Q346 60 386 115ZM356 591T339 600T297 626Q278 640 265 646T241 653Q225 653 216 645T193 619Q180 597 169 597Q160 597 155 604T149 622Q149 640 162 662T197 700T244 716Q263 716 280 707T322 681Q341 667
354 661T379 654Q396 654 406 663T426 688Q434 699 439 704T451 710Q470 710 470 685Q470 667 457 645T422 607T375 591Q356 591 339 600Z" />
<glyph unicode="&#xf6;" glyph-name="odieresis" horiz-adv-x="555" d="M204 -7T153 22T74 104T46 229Q46 310 75 371T158 465T283 499Q352 499 403 470T482 387T510 262Q510 181 481 120T397 26T272 -7Q204 -7 153 22ZM346 60T386 115T427 265Q427 345 390 388T283
432Q210 432 169 376T128 226Q128 145 165 103T273 60Q346 60 386 115ZM203 605T189 618T175 653Q175 674 189 687T224 700Q245 700 259 687T274 653Q274 631 260 618T224 605Q203 605 189 618ZM375 605T361 618T346 653Q346 674 360 687T396 700Q417 700 431 687T445
653Q445 632 431 619T396 605Q375 605 361 618Z" />
<glyph unicode="&#xf7;" glyph-name="divide" horiz-adv-x="600" d="M285 332T271 345T257 381Q257 403 271 416T306 430Q326 430 339 416T353 381Q353 360 340 346T306 332Q285 332 271 345ZM77 253T69 262T60 285Q60 298 69 307T93 316H517Q530 316 538 307T547
284Q547 271 538 262T514 253H90Q77 253 69 262ZM269 139T255 153T241 189Q241 210 255 224T289 238Q309 238 323 224T337 189Q337 167 323 153T289 139Q269 139 255 153Z" />
<glyph unicode="&#xf8;" glyph-name="oslash" horiz-adv-x="555" d="M474 411T492 365T510 262Q510 181 481 120T397 26T272 -7Q210 -7 160 18L134 -22Q124 -37 108 -37Q97 -37 90 -30T82 -12Q82 -3 88 6L116 49Q82 80 64 126T46 229Q46 310 75 371T158 465T283
499Q346 499 396 474L422 513Q432 529 449 529Q460 529 467 522T475 504Q475 495 468 485L440 443Q474 411 492 365ZM128 153T158 112L357 415Q326 432 283 432Q209 432 169 377T128 226Q128 153 158 112ZM347 59T387 114T428 265Q428 337 398 379L198 76Q230 59
273 59Q347 59 387 114Z" />
<glyph unicode="&#xf9;" glyph-name="ugrave" horiz-adv-x="561" d="M483 497T493 487T502 457L468 32Q467 15 455 5T425 -5Q408 -5 398 4T389 31L393 79Q368 38 326 16T232 -7Q151 -7 109 35T67 160Q67 178 68 187L89 457Q91 476 103 486T133 497Q151 497 161
487T170 457L149 192Q148 185 148 171Q148 61 253 61Q318 61 357 101T401 212L421 457Q423 476 435 486T465 497Q483 497 493 487ZM190 701Q182 713 182 726Q182 741 193 751T218 761Q243 761 254 734L319 580Q322 574 322 568Q322 558 316 553T299 547Q282 547
272 561L190 701Z" />
<glyph unicode="&#xfa;" glyph-name="uacute" horiz-adv-x="561" d="M483 497T493 487T502 457L468 32Q467 15 455 5T425 -5Q408 -5 398 4T389 31L393 79Q368 38 326 16T232 -7Q151 -7 109 35T67 160Q67 178 68 187L89 457Q91 476 103 486T133 497Q151 497 161
487T170 457L149 192Q148 185 148 171Q148 61 253 61Q318 61 357 101T401 212L421 457Q423 476 435 486T465 497Q483 497 493 487ZM322 546T312 546Q303 546 297 552T290 568Q290 578 295 584L417 739Q431 759 451 759Q466 759 478 749T490 723Q490 708 476 694L332
556Q322 546 312 546Z" />
<glyph unicode="&#xfb;" glyph-name="ucircumflex" horiz-adv-x="561" d="M483 497T493 487T502 457L468 32Q467 15 455 5T425 -5Q408 -5 398 4T389 31L393 79Q368 38 326 16T232 -7Q151 -7 109 35T67 160Q67 178 68 187L89 457Q91 476 103 486T133 497Q151 497
161 487T170 457L149 192Q148 185 148 171Q148 61 253 61Q318 61 357 101T401 212L421 457Q423 476 435 486T465 497Q483 497 493 487ZM230 546T212 546Q200 546 191 555T181 576Q181 587 188 597L279 733Q295 758 321 758Q333 758 343 752T359 733L429 595Q433
587 433 578Q433 565 423 556T399 546Q380 546 371 566L316 694L242 565Q230 546 212 546Z" />
<glyph unicode="&#xfc;" glyph-name="udieresis" horiz-adv-x="561" d="M483 497T493 487T502 457L468 32Q467 15 455 5T425 -5Q408 -5 398 4T389 31L393 79Q368 38 326 16T232 -7Q151 -7 109 35T67 160Q67 178 68 187L89 457Q91 476 103 486T133 497Q151 497
161 487T170 457L149 192Q148 185 148 171Q148 61 253 61Q318 61 357 101T401 212L421 457Q423 476 435 486T465 497Q483 497 493 487ZM206 605T192 618T178 653Q178 674 192 687T227 700Q248 700 262 687T277 653Q277 631 263 618T227 605Q206 605 192 618ZM378
605T364 618T349 653Q349 674 363 687T399 700Q420 700 434 687T448 653Q448 632 434 619T399 605Q378 605 364 618Z" />
<glyph unicode="&#xfd;" glyph-name="yacute" horiz-adv-x="514" d="M451 492T474 492Q489 492 500 482T512 457Q512 449 507 439L191 -162Q178 -186 154 -186Q140 -186 130 -177T119 -154Q119 -148 124 -136L198 5L38 441Q35 449 35 454Q35 470 48 480T77 491Q88
491 97 485T111 467L245 88L440 470Q451 492 474 492ZM300 546T290 546Q281 546 275 552T268 568Q268 578 273 584L395 739Q409 759 429 759Q444 759 456 749T468 723Q468 708 454 694L310 556Q300 546 290 546Z" />
<glyph unicode="&#xfe;" glyph-name="thorn" horiz-adv-x="582" d="M391 499T438 470T511 388T537 264Q537 183 508 122T427 27T308 -7Q251 -7 208 18T144 88L125 -149Q124 -167 112 -176T82 -186Q64 -186 54 -177T44 -149L109 671Q111 691 123 701T153 711Q171
711 182 701T191 671L170 416Q195 455 237 477T329 499Q391 499 438 470ZM372 60T413 114T454 261Q454 342 416 387T309 432Q237 432 196 378T155 228Q155 146 192 103T300 60Q372 60 413 114Z" />
<glyph unicode="&#xff;" glyph-name="ydieresis" horiz-adv-x="514" d="M451 492T474 492Q489 492 500 482T512 457Q512 449 507 439L191 -162Q178 -186 154 -186Q140 -186 130 -177T119 -154Q119 -148 124 -136L198 5L38 441Q35 449 35 454Q35 470 48 480T77
491Q88 491 97 485T111 467L245 88L440 470Q451 492 474 492ZM184 605T170 618T156 653Q156 674 170 687T205 700Q226 700 240 687T255 653Q255 631 241 618T205 605Q184 605 170 618ZM356 605T342 618T327 653Q327 674 341 687T377 700Q398 700 412 687T426 653Q426
632 412 619T377 605Q356 605 342 618Z" />
<glyph unicode="&#x2013;" glyph-name="endash" horiz-adv-x="500" d="M19 240T11 247T2 266Q2 277 11 284T36 292H472Q486 292 494 285T502 266Q502 255 493 248T469 240H33Q19 240 11 247Z" />
<glyph unicode="&#x2014;" glyph-name="emdash" horiz-adv-x="1000" d="M19 240T11 247T2 266Q2 277 11 284T36 292H972Q986 292 994 285T1002 266Q1002 255 993 248T969 240H33Q19 240 11 247Z" />
<glyph unicode="&#x2018;" glyph-name="quoteleft" horiz-adv-x="229" d="M168 596T181 582T194 545Q194 519 179 504T140 489Q115 489 100 506T85 556Q85 597 101 634T146 699Q157 710 170 710Q181 710 188 704T195 687Q195 676 185 666Q156 637 148 598Q168
596 181 582Z" />
<glyph unicode="&#x2019;" glyph-name="quoteright" horiz-adv-x="229" d="M171 710T186 693T201 642Q201 602 185 565T140 499Q129 489 117 489Q106 489 99 495T91 512Q91 523 101 533Q128 560 138 600Q118 602 105 617T92 653Q92 679 107 694T146 710Q171 710 186 693Z" />
<glyph unicode="&#x201a;" glyph-name="quotesinglbase" horiz-adv-x="229" d="M123 108T138 91T153 40Q153 -1 137 -38T91 -103Q80 -114 68 -114Q57 -114 50 -108T43 -91Q43 -80 53 -70Q82 -41 90 -2Q69 0 57 14T44 51Q44 77 59 92T98 108Q123 108 138 91Z" />
<glyph unicode="&#x201c;" glyph-name="quotedblleft" horiz-adv-x="395" d="M168 596T181 582T194 545Q194 519 179 504T140 489Q115 489 100 506T85 556Q85 597 101 634T146 699Q157 710 170 710Q181 710 188 704T195 687Q195 676 185 666Q156 637 148 598Q168
596 181 582ZM334 596T347 582T360 545Q360 519 345 504T306 489Q281 489 266 506T251 556Q251 597 267 634T312 699Q323 710 336 710Q347 710 354 704T361 687Q361 676 351 666Q322 637 314 598Q334 596 347 582Z" />
<glyph unicode="&#x201d;" glyph-name="quotedblright" horiz-adv-x="395" d="M171 710T186 693T201 642Q201 602 185 565T140 499Q129 489 117 489Q106 489 99 495T91 512Q91 523 101 533Q128 560 138 600Q118 602 105 617T92 653Q92 679 107 694T146 710Q171
710 186 693ZM337 710T352 693T367 642Q367 602 351 565T306 499Q295 489 283 489Q272 489 265 495T257 512Q257 523 267 533Q294 560 304 600Q284 602 271 617T258 653Q258 679 273 694T312 710Q337 710 352 693Z" />
<glyph unicode="&#x201e;" glyph-name="quotedblbase" horiz-adv-x="395" d="M123 108T138 91T153 40Q153 -1 137 -38T91 -103Q80 -114 68 -114Q57 -114 50 -108T43 -91Q43 -80 53 -70Q82 -41 90 -2Q69 0 57 14T44 51Q44 77 59 92T98 108Q123 108 138 91ZM289
108T304 91T319 40Q319 -1 303 -38T257 -103Q246 -114 234 -114Q223 -114 216 -108T209 -91Q209 -80 219 -70Q248 -41 256 -2Q235 0 223 14T210 51Q210 77 225 92T264 108Q289 108 304 91Z" />
<glyph unicode="&#x2022;" glyph-name="bullet" horiz-adv-x="524" d="M215 88T173 111T107 175T82 265Q82 311 105 352T170 418T263 443Q311 443 352 420T419 356T444 265Q444 217 420 177T354 112T263 88Q215 88 173 111Z" />
<glyph unicode="&#x2039;" glyph-name="guilsinglleft" horiz-adv-x="260" d="M64 241Q58 253 58 264Q58 277 67 290L158 425Q170 444 193 444Q205 444 214 437T223 418Q223 411 217 400L138 266L193 131Q196 124 196 116Q196 103 187 95T164 86Q143 86 133 106L64 241Z" />
<glyph unicode="&#x203a;" glyph-name="guilsinglright" horiz-adv-x="258" d="M91 86T71 86Q58 86 49 93T40 112Q40 121 46 131L126 265L69 400Q66 408 66 414Q66 428 76 436T99 445Q120 445 130 425L200 290Q206 280 206 268Q206 255 196 241L104 105Q91 86 71 86Z" />
</font>
</defs>
</svg>
