<?xml version="1.0" standalone="no"?>
<!DOCTYPE svg PUBLIC "-//W3C//DTD SVG 1.1//EN" "http://www.w3.org/Graphics/SVG/1.1/DTD/svg11.dtd">
<svg xmlns="http://www.w3.org/2000/svg">
<defs >
<font id="Nunito" horiz-adv-x="551" ><font-face
    font-family="Nunito Light"
    units-per-em="1000"
    panose-1="0 0 4 0 0 0 0 0 0 0"
    ascent="1011"
    descent="-353"
    alphabetic="0" />
<glyph unicode=" " glyph-name="space" horiz-adv-x="252" />
<glyph unicode="!" glyph-name="exclam" horiz-adv-x="220" d="M102 168T97 174T91 190L72 673Q71 689 82 699T110 710Q126 710 137 700T147 672L129 190Q128 180 123 174T110 168Q102 168 97 174ZM91 -5T78 8T64 43Q64 64 77 77T111 91Q130 91 143 78T157 43Q157
22 144 9T111 -5Q91 -5 78 8Z" />
<glyph unicode="&quot;" glyph-name="quotedbl" horiz-adv-x="408" d="M98 429T93 435T86 451L70 667Q69 687 79 698T106 710Q123 710 133 699T141 667L127 451Q126 429 107 429Q98 429 93 435ZM294 429T289 435T282 451L266 667Q265 687 275 698T302 710Q319
710 329 699T337 667L323 451Q322 429 303 429Q294 429 289 435Z" />
<glyph unicode="#" glyph-name="numbersign" horiz-adv-x="600" d="M466 477L419 236H529Q540 236 547 228T555 209Q555 199 548 193T529 186H409L376 15Q375 6 368 1T351 -5Q338 -5 331 5T326 29L357 186H182L149 15Q148 6 141 1T123 -5Q110 -5 103 5T98 29L129
186H51Q40 186 33 194T25 213Q25 223 32 229T51 236H139L186 477H71Q60 477 53 485T45 504Q45 514 52 520T71 527H196L228 693Q230 702 236 707T253 713Q266 713 273 703T278 679L248 527H423L455 693Q456 702 463 707T481 713Q494 713 501 703T506 679L476 527H549Q560
527 567 519T575 500Q575 490 568 484T549 477H466ZM366 236L413 477H239L192 236H366Z" />
<glyph unicode="$" glyph-name="dollar" horiz-adv-x="600" d="M544 108T488 56T338 -6V-90Q338 -103 331 -111T310 -120Q298 -120 290 -112T282 -90V-7Q221 -4 161 17T62 77Q50 88 50 106Q50 117 55 125T70 133Q80 133 93 123Q196 47 303 47Q387 47 434 83T482
186Q482 225 458 249T398 287T300 316Q224 335 178 353T99 410T66 514Q66 568 93 611T169 681T282 712V795Q282 808 289 816T310 825Q322 825 329 817T337 795V712Q392 707 443 686T528 628Q541 615 541 599Q541 588 535 580T520 572Q508 572 497 582Q450 622 407
640T306 658Q224 658 176 620T128 515Q128 470 154 442T218 400T321 370Q394 352 438 335T513 282T544 186Q544 108 488 56Z" />
<glyph unicode="%" glyph-name="percent" horiz-adv-x="923" d="M281 -17T264 -17Q254 -17 246 -9T238 11Q238 22 243 29L633 704Q644 722 660 722Q670 722 678 714T686 694Q686 684 681 676L291 1Q281 -17 264 -17ZM148 281T104 335T60 497Q60 604 104 658T226
712Q305 712 349 658T393 497Q393 390 349 336T226 281Q148 281 104 335ZM281 329T307 369T334 497Q334 584 308 624T226 665Q172 665 146 624T119 497Q119 410 145 370T226 329Q281 329 307 369ZM618 -7T575 47T531 209Q531 317 574 370T697 424Q776 424 819 371T863
209Q863 101 820 47T697 -7Q618 -7 575 47ZM751 41T777 81T804 209Q804 295 778 335T697 376Q642 376 616 336T590 209Q590 122 616 82T697 41Q751 41 777 81Z" />
<glyph unicode="&amp;" glyph-name="ampersand" horiz-adv-x="656" d="M646 27T646 19Q646 8 638 0T618 -8Q607 -8 599 1L502 105Q458 50 401 22T277 -7Q214 -7 164 15T86 78T58 173Q58 239 99 290T227 395L230 397Q185 446 164 482T142 563Q142 634 188 673T306
712Q374 712 415 676T456 575Q456 521 423 480T313 389L494 192Q531 269 537 382Q538 397 547 405T567 413Q579 413 586 405T593 382Q586 246 532 151L638 37Q646 27 646 19ZM203 528T220 500T277 427Q345 472 372 503T399 571Q399 611 374 636T306 661Q260 661
232 635T203 563Q203 528 220 500ZM334 45T382 69T466 144L265 359L261 356Q180 304 150 265T119 174Q119 113 163 79T280 45Q334 45 382 69Z" />
<glyph unicode="&apos;" glyph-name="quotesingle" horiz-adv-x="211" d="M98 429T93 435T86 451L70 667Q69 687 79 698T106 710Q123 710 133 699T141 667L127 451Q126 429 107 429Q98 429 93 435Z" />
<glyph unicode="(" glyph-name="parenleft" horiz-adv-x="297" d="M105 37T105 263Q105 487 208 698Q217 715 233 715Q243 715 250 709T257 693Q257 687 254 681Q167 477 167 263Q167 49 254 -155Q257 -161 257 -167Q257 -177 250 -183T233 -189Q217 -189 208
-172Q105 37 105 263Z" />
<glyph unicode=")" glyph-name="parenright" horiz-adv-x="297" d="M81 -189T64 -189Q54 -189 47 -183T40 -167Q40 -161 43 -155Q130 49 130 263Q130 477 43 681Q40 687 40 693Q40 703 47 709T64 715Q81 715 89 698Q192 487 192 263Q192 37 89 -172Q81 -189 64 -189Z" />
<glyph unicode="*" glyph-name="asterisk" horiz-adv-x="449" d="M404 562T412 555T420 537Q420 526 412 519T390 512L261 516L329 406Q334 399 334 389Q334 379 327 372T310 364Q294 364 285 381L225 495L163 380Q154 364 139 364Q129 364 122 371T114 388Q114
396 120 405L189 516L59 512Q45 512 37 519T29 537Q29 548 37 555T59 562L189 557L120 669Q115 677 115 686Q115 696 122 703T139 710Q153 710 163 693L225 579L285 693Q294 710 310 710Q319 710 326 703T334 685Q334 676 329 668L261 557L390 562Q404 562 412
555Z" />
<glyph unicode="+" glyph-name="plus" horiz-adv-x="600" d="M528 309T536 302T544 284Q544 273 536 266T517 258H325V67Q325 56 318 48T300 40Q290 40 283 48T275 67V258H83Q72 258 64 265T56 284Q56 294 64 301T83 309H275V501Q275 512 282 520T300 528Q310
528 317 520T325 501V309H517Q528 309 536 302Z" />
<glyph unicode="," glyph-name="comma" horiz-adv-x="220" d="M130 91T143 74T157 23Q157 -48 112 -96Q103 -106 92 -106Q83 -106 76 -100T69 -85Q69 -78 77 -68Q102 -40 106 -4Q87 -2 76 10T64 43Q64 64 76 77T108 91Q130 91 143 74Z" />
<glyph unicode="-" glyph-name="hyphen" horiz-adv-x="421" d="M84 240T77 247T69 265Q69 277 76 284T97 292H324Q337 292 344 285T352 265Q352 254 345 247T324 240H97Q84 240 77 247Z" />
<glyph unicode="." glyph-name="period" horiz-adv-x="220" d="M91 -5T78 8T64 43Q64 64 77 77T111 91Q130 91 143 78T157 43Q157 22 144 9T111 -5Q91 -5 78 8Z" />
<glyph unicode="/" glyph-name="slash" horiz-adv-x="269" d="M38 -48T31 -53T15 -59Q4 -59 -5 -51T-14 -29Q-14 -26 -12 -18L227 725Q231 736 238 741T254 747Q265 747 273 739T282 718Q282 714 280 706L42 -37Q38 -48 31 -53Z" />
<glyph unicode="0" glyph-name="zero" horiz-adv-x="600" d="M181 -8T119 83T57 352Q57 530 119 621T300 713Q419 713 481 622T543 353Q543 176 481 84T300 -8Q181 -8 119 83ZM392 47T435 121T479 353Q479 510 436 584T300 658Q208 658 165 584T121 353Q121 197
165 122T300 47Q392 47 435 121Z" />
<glyph unicode="1" glyph-name="one" horiz-adv-x="600" d="M500 54T508 47T516 27Q516 14 509 7T487 0H160Q147 0 140 7T132 27Q132 39 139 46T160 54H293V625L178 550Q173 546 165 546Q154 546 146 556T137 579Q137 593 150 602L300 702Q313 710 325 710Q338
710 346 702T355 678V54H487Q500 54 508 47Z" />
<glyph unicode="2" glyph-name="two" horiz-adv-x="600" d="M525 54T533 47T541 27Q541 0 512 0H114Q100 0 92 8T84 27Q84 41 94 51L341 326Q394 387 418 434T442 528Q442 591 406 625T303 659Q252 659 207 641T113 582Q102 572 90 572Q82 572 76 580T70 599Q70
616 83 628Q123 667 182 690T303 713Q396 713 450 665T504 531Q504 470 476 413T384 285L173 54H512Q525 54 533 47Z" />
<glyph unicode="3" glyph-name="three" horiz-adv-x="600" d="M452 345T485 301T519 190Q519 99 459 46T296 -7Q231 -7 171 16T72 78Q59 90 59 107Q59 118 65 126T79 134Q91 134 102 124Q149 83 195 65T296 47Q373 47 415 84T457 190Q457 331 283 331H232Q219
331 211 339T203 358Q203 369 210 377T232 385H268Q351 385 396 423T442 533Q442 593 406 626T303 659Q252 659 207 641T113 582Q102 572 90 572Q82 572 76 580T70 599Q70 616 83 628Q122 667 181 690T303 713Q395 713 449 666T504 536Q504 474 473 428T387 362Q452
345 485 301Z" />
<glyph unicode="4" glyph-name="four" horiz-adv-x="600" d="M550 213T557 206T565 186Q565 173 558 167T537 160H451V27Q451 13 443 4T420 -5Q406 -5 398 4T389 27V160H79Q65 160 57 167T49 186Q49 198 58 210L394 696Q398 703 405 706T421 710Q433 710 442 702T451
678V213H537Q550 213 557 206ZM124 213H389V596L124 213Z" />
<glyph unicode="5" glyph-name="five" horiz-adv-x="600" d="M390 438T440 410T518 332T546 216Q546 151 517 101T436 22T316 -7Q253 -7 194 16T96 78Q83 90 83 107Q83 118 89 126T103 134Q113 134 126 124Q174 84 219 66T315 47Q393 47 438 92T483 216Q483 291
439 337T319 384Q219 384 162 305Q150 289 132 289Q121 289 113 296T105 316V676Q105 688 113 696T135 705H496Q509 705 517 698T525 678Q525 667 517 660T496 652H166V372Q194 404 234 421T323 438Q390 438 440 410Z" />
<glyph unicode="6" glyph-name="six" horiz-adv-x="599" d="M388 439T438 411T517 333T545 216Q545 152 516 101T436 21T321 -8Q196 -8 128 80T60 333Q60 513 130 613T325 713Q383 713 439 690T534 628Q547 616 547 599Q547 588 541 580T527 572Q517 572 504 582Q413
659 325 659Q230 659 176 573T122 333V306Q145 368 199 403T323 439Q388 439 438 411ZM393 46T437 92T482 216Q482 292 437 338T318 384Q243 384 195 337T147 216Q147 140 194 93T319 46Q393 46 437 92Z" />
<glyph unicode="7" glyph-name="seven" horiz-adv-x="600" d="M518 705T525 698T533 679Q533 671 526 655L187 11Q179 -6 160 -6Q148 -6 140 2T131 23Q131 31 135 39L458 651H95Q82 651 75 658T67 678Q67 691 74 698T95 705H504Q518 705 525 698Z" />
<glyph unicode="8" glyph-name="eight" horiz-adv-x="600" d="M477 343T512 297T548 185Q548 95 484 44T300 -7Q181 -7 117 44T52 185Q52 251 87 297T185 361Q131 381 100 425T68 527Q68 613 129 663T300 713Q410 713 471 663T532 527Q532 469 501 425T415 361Q477
343 512 297ZM131 458T174 421T300 384Q383 384 426 421T469 524Q469 588 426 623T300 659Q217 659 174 624T131 524Q131 458 174 421ZM485 47T485 188Q485 330 300 330Q115 330 115 188Q115 47 300 47Q485 47 485 188Z" />
<glyph unicode="9" glyph-name="nine" horiz-adv-x="600" d="M404 713T472 625T540 372Q540 192 470 92T275 -8Q217 -8 161 15T66 77Q53 89 53 106Q53 117 59 125T73 133Q83 133 96 123Q187 46 275 46Q370 46 424 132T478 372V399Q455 337 401 302T277 266Q212
266 162 294T83 372T55 489Q55 553 84 604T164 684T279 713Q404 713 472 625ZM357 321T405 368T453 489Q453 565 406 612T281 659Q207 659 163 613T118 489Q118 413 163 367T282 321Q357 321 405 368Z" />
<glyph unicode=":" glyph-name="colon" horiz-adv-x="220" d="M91 400T78 413T64 448Q64 470 77 483T111 496Q130 496 143 483T157 448Q157 427 144 414T111 400Q91 400 78 413ZM91 -5T78 8T64 43Q64 64 77 77T111 91Q130 91 143 78T157 43Q157 22 144 9T111 -5Q91
-5 78 8Z" />
<glyph unicode=";" glyph-name="semicolon" horiz-adv-x="220" d="M91 400T78 413T64 448Q64 470 77 483T111 496Q130 496 143 483T157 448Q157 427 144 414T111 400Q91 400 78 413ZM130 91T143 74T157 23Q157 -48 112 -96Q103 -106 92 -106Q83 -106 76 -100T69
-85Q69 -78 77 -68Q102 -40 106 -4Q87 -2 76 10T64 43Q64 64 76 77T108 91Q130 91 143 74Z" />
<glyph unicode="&lt;" glyph-name="less" horiz-adv-x="600" d="M544 88T544 72Q544 62 536 55T517 48Q510 48 498 53L79 247Q56 259 56 284Q56 309 79 320L498 514Q506 518 516 518Q528 518 536 512T544 494Q544 479 530 473L118 284L530 94Q544 88 544 72Z" />
<glyph unicode="=" glyph-name="equal" horiz-adv-x="600" d="M78 358T70 366T62 385Q62 395 70 402T89 409H523Q534 409 542 401T550 382Q550 372 542 365T523 358H89Q78 358 70 366ZM78 414T70 422T62 441Q62 451 70 458T89 465H523Q534 465 542 457T550 438Q550
428 542 421T523 414H89Q78 414 70 422Z" />
<glyph unicode="&gt;" glyph-name="greater" horiz-adv-x="600" d="M544 309T544 284Q544 259 521 247L102 53Q90 48 83 48Q72 48 64 55T56 72Q56 88 70 94L482 284L70 473Q56 479 56 494Q56 505 64 511T84 518Q94 518 102 514L521 320Q544 309 544 284Z" />
<glyph unicode="?" glyph-name="question" horiz-adv-x="436" d="M194 168T189 174T183 190Q183 236 195 273T226 338T274 404Q310 451 327 483T345 557Q345 603 311 630T219 658Q170 658 130 640T39 581Q27 571 16 571Q7 571 2 579T-4 598Q-4 615 9 627Q49 666
106 689T220 712Q305 712 356 670T408 560Q408 507 386 468T319 376Q274 322 250 282T221 187Q219 168 202 168Q194 168 189 174ZM181 -5T168 8T155 43Q155 64 168 77T202 91Q222 91 235 78T248 43Q248 22 235 9T202 -5Q181 -5 168 8Z" />
<glyph unicode="@" glyph-name="at" horiz-adv-x="922" d="M345 -150T250 -97T103 52T51 275Q51 405 106 503T257 656T471 710Q599 710 689 657T825 520T871 345Q871 244 841 181T766 91T672 64Q618 64 588 87T557 154H555Q531 113 492 89T402 64Q339 64 298 109T257
237Q257 304 283 364T358 461T469 498Q518 498 554 474T600 413H601L610 466Q612 476 619 481T638 487Q651 487 657 479T662 457L618 205Q615 186 615 171Q615 137 631 123T681 109Q712 109 743 132T796 208T818 345Q818 422 780 494T663 612T471 659Q367 659 284
612T152 478T104 275Q104 162 148 78T275 -53T472 -99Q554 -99 615 -75T717 -8Q731 6 745 6Q755 6 762 -2T769 -21Q769 -34 759 -44Q711 -94 637 -122T472 -150Q345 -150 250 -97ZM466 109T504 141T563 223T584 330Q584 389 555 420T474 452Q424 452 387 422T329
343T309 241Q309 178 339 144T413 109Q466 109 504 141Z" />
<glyph unicode="A" glyph-name="A" horiz-adv-x="720" d="M688 27T688 21Q688 10 679 3T658 -5Q650 -5 643 0T631 14L555 188H167L90 14Q81 -5 62 -5Q50 -5 42 2T33 22Q33 29 35 33L327 689Q336 711 360 711Q371 711 380 705T394 689L685 33Q688 27 688 21ZM190
242H531L361 629L190 242Z" />
<glyph unicode="B" glyph-name="B" horiz-adv-x="670" d="M538 346T571 302T605 191Q605 98 545 49T373 0H124Q110 0 101 9T91 31V674Q91 687 100 696T124 705H363Q471 705 530 657T589 520Q589 463 560 422T477 361Q538 346 571 302ZM152 385H354Q439 385 483
420T527 521Q527 652 354 652H152V385ZM458 53T500 86T543 189Q543 331 369 331H152V53H369Q458 53 500 86Z" />
<glyph unicode="C" glyph-name="C" horiz-adv-x="677" d="M286 -8T214 35T103 160T64 353Q64 464 102 545T213 669T384 713Q451 713 511 691T614 626Q628 613 628 597Q628 586 622 578T607 570Q597 570 584 580Q530 624 486 641T383 658Q262 658 196 578T129 353Q129
207 195 127T383 47Q442 47 486 64T584 125Q599 135 607 135Q615 135 621 127T628 108Q628 92 614 79Q572 37 512 15T384 -8Q286 -8 214 35Z" />
<glyph unicode="D" glyph-name="D" horiz-adv-x="731" d="M110 0T101 9T91 31V674Q91 687 100 696T124 705H318Q485 705 576 614T668 353Q668 183 577 92T318 0H124Q110 0 101 9ZM315 54Q603 54 603 353Q603 651 315 651H153V54H315Z" />
<glyph unicode="E" glyph-name="E" horiz-adv-x="579" d="M110 0T101 9T91 31V674Q91 687 100 696T124 705H504Q517 705 524 698T532 678Q532 666 525 659T504 652H152V385H484Q497 385 504 378T512 358Q512 345 505 338T484 331H152V53H504Q517 53 524 47T532
27Q532 14 525 7T504 0H124Q110 0 101 9Z" />
<glyph unicode="F" glyph-name="F" horiz-adv-x="553" d="M108 -5T100 4T91 27V674Q91 687 100 696T124 705H494Q507 705 514 698T522 678Q522 665 515 659T494 652H153V385H474Q487 385 494 378T502 358Q502 345 495 338T474 331H153V27Q153 12 145 4T122 -5Q108
-5 100 4Z" />
<glyph unicode="G" glyph-name="G" horiz-adv-x="719" d="M621 361T628 354T636 334V69Q636 43 613 33Q572 14 514 3T395 -8Q292 -8 218 34T104 158T64 353Q64 464 103 545T215 669T388 713Q458 713 519 691T619 626Q632 613 632 597Q632 586 626 578T611 570Q603
570 589 580Q536 624 491 641T388 658Q264 658 197 579T129 353Q129 204 197 125T395 46Q445 46 493 54T580 79V309H418Q404 309 397 316T389 335Q389 347 396 354T418 361H609Q621 361 628 354Z" />
<glyph unicode="H" glyph-name="H" horiz-adv-x="754" d="M647 710T655 702T663 678V27Q663 12 655 4T632 -5Q618 -5 610 4T602 27V331H152V27Q152 13 144 4T122 -5Q108 -5 100 4T91 27V678Q91 692 99 701T122 710Q136 710 144 701T152 678V385H602V678Q602 692
610 701T632 710Q647 710 655 702Z" />
<glyph unicode="I" glyph-name="I" horiz-adv-x="244" d="M108 -5T100 4T91 27V678Q91 692 99 701T122 710Q136 710 144 701T153 678V27Q153 13 145 4T122 -5Q108 -5 100 4Z" />
<glyph unicode="J" glyph-name="J" horiz-adv-x="311" d="M10 -6T1 1T-9 21Q-9 46 20 47L49 49Q105 53 131 83T158 184V678Q158 692 167 701T189 710Q204 710 212 702T220 678V182Q220 91 181 47T59 -3L29 -5Q10 -6 1 1Z" />
<glyph unicode="K" glyph-name="K" horiz-adv-x="613" d="M592 36T592 24Q592 13 584 5T564 -4Q555 -4 545 4L153 337V27Q153 13 145 4T122 -5Q108 -5 100 4T91 27V678Q91 692 99 701T122 710Q136 710 144 701T153 678V377L525 701Q533 709 544 709Q555 709 564
701T573 681Q573 669 562 659L214 360L581 46Q592 36 592 24Z" />
<glyph unicode="L" glyph-name="L" horiz-adv-x="533" d="M110 0T101 8T91 28V678Q91 692 99 701T122 710Q137 710 145 702T153 678V54H495Q508 54 515 47T523 27Q523 14 516 7T495 0H123Q110 0 101 8Z" />
<glyph unicode="M" glyph-name="M" horiz-adv-x="840" d="M732 710T740 701T749 678V27Q749 13 741 4T719 -5Q705 -5 698 3T691 27V582L454 124Q442 101 421 101Q400 101 388 124L149 578V27Q149 12 142 4T121 -5Q106 -5 99 3T91 27V678Q91 692 99 701T123 710Q141
710 153 687L422 171L687 687Q699 710 717 710Q732 710 740 701Z" />
<glyph unicode="N" glyph-name="N" horiz-adv-x="735" d="M629 710T636 702T644 678V27Q644 13 636 4T614 -5Q599 -5 587 10L149 601V27Q149 13 141 4T120 -5Q105 -5 98 3T91 27V678Q91 692 99 701T123 710Q139 710 149 695L586 105V678Q586 692 594 701T615 710Q629
710 636 702Z" />
<glyph unicode="O" glyph-name="O" horiz-adv-x="757" d="M282 -8T211 35T102 160T64 352Q64 463 102 544T210 669T378 713Q475 713 546 670T655 545T693 353Q693 242 655 161T546 36T378 -8Q282 -8 211 35ZM497 47T563 127T629 353Q629 499 564 578T378 658Q259
658 194 578T128 353Q128 208 193 128T378 47Q497 47 563 127Z" />
<glyph unicode="P" glyph-name="P" horiz-adv-x="638" d="M108 -5T100 3T91 27V674Q91 687 100 696T124 705H358Q468 705 528 652T589 502Q589 404 528 351T358 297H153V27Q153 12 145 4T122 -5Q108 -5 100 3ZM354 350Q527 350 527 502Q527 652 354 652H153V350H354Z" />
<glyph unicode="Q" glyph-name="Q" horiz-adv-x="757" d="M612 -144Q617 -154 617 -160Q617 -170 609 -177T590 -184Q569 -184 555 -162L498 -69Q460 -8 378 -8Q283 -8 212 35T103 160T64 352Q64 463 102 544T211 669T378 713Q475 713 546 670T655 545T693 353Q693
222 639 132T488 9Q509 2 526 -15T561 -62L612 -144ZM128 208T193 128T378 47Q497 47 563 127T629 353Q629 499 564 578T378 658Q259 658 194 578T128 353Q128 208 193 128Z" />
<glyph unicode="R" glyph-name="R" horiz-adv-x="682" d="M624 28T624 20Q624 9 616 2T596 -6Q579 -6 569 10L434 226Q405 272 375 289T290 306H153V27Q153 12 145 4T122 -5Q108 -5 100 3T91 27V674Q91 687 100 696T124 705H373Q484 705 544 655T604 507Q604 422
553 372T409 314Q433 306 453 288T494 236L618 37Q624 28 624 20ZM369 359Q543 359 543 508Q543 581 500 616T369 652H152V359H369Z" />
<glyph unicode="S" glyph-name="S" horiz-adv-x="607" d="M234 -8T166 15T58 79Q45 90 45 108Q45 119 51 127T66 135Q76 135 89 125Q183 47 308 47Q399 47 448 83T498 187Q498 226 474 250T413 287T314 315Q232 333 182 352T96 409T61 513Q61 572 92 617T181 688T312
713Q381 713 442 691T543 626Q556 613 556 597Q556 586 550 578T535 570Q525 570 512 580Q458 624 415 641T312 658Q223 658 173 620T123 514Q123 473 145 448T202 407T294 378L320 372Q401 352 448 335T527 283T560 187Q560 130 529 86T440 17T308 -8Q234 -8 166
15Z" />
<glyph unicode="T" glyph-name="T" horiz-adv-x="590" d="M281 -5T273 4T265 27V651H34Q21 651 14 658T6 678Q6 691 13 698T34 705H556Q568 705 576 698T584 678Q584 666 576 659T556 651H326V27Q326 13 318 4T295 -5Q281 -5 273 4Z" />
<glyph unicode="U" glyph-name="U" horiz-adv-x="720" d="M225 -8T156 63T86 272V678Q86 693 94 701T117 710Q131 710 139 702T148 678V265Q148 47 360 47Q465 47 518 102T572 265V678Q572 692 580 701T603 710Q617 710 625 702T633 678V272Q633 134 564 63T360
-8Q225 -8 156 63Z" />
<glyph unicode="V" glyph-name="V" horiz-adv-x="680" d="M618 711T637 711Q649 711 658 704T668 685Q668 679 665 673L374 17Q370 7 361 1T340 -5Q330 -5 321 0T306 17L16 673Q13 679 13 684Q13 696 22 703T44 711Q63 711 70 694L341 81L611 694Q618 711 637 711Z" />
<glyph unicode="W" glyph-name="W" horiz-adv-x="1096" d="M1008 711T1027 711Q1039 711 1048 703T1058 683Q1058 681 1056 673L824 17Q820 6 811 0T790 -6Q780 -6 771 0T758 17L549 609L338 17Q334 6 325 0T305 -6Q295 -6 286 0T273 17L41 673Q39 681 39 684Q39
696 48 703T69 711Q78 711 85 706T96 692L307 86L517 684Q521 696 529 702T548 708Q559 708 568 702T581 683L790 86L1001 692Q1008 711 1027 711Z" />
<glyph unicode="X" glyph-name="X" horiz-adv-x="638" d="M610 35T610 24Q610 13 602 5T581 -4Q567 -4 558 8L319 316L78 8Q68 -4 56 -4Q45 -4 36 4T27 24Q27 35 34 43L283 361L47 662Q40 670 40 681Q40 692 48 700T68 709Q82 709 91 697L319 406L546 697Q555
709 569 709Q580 709 589 701T598 681Q598 670 591 662L355 361L603 43Q610 35 610 24Z" />
<glyph unicode="Y" glyph-name="Y" horiz-adv-x="591" d="M542 709T555 709Q566 709 574 701T582 681Q582 670 575 662L325 340V27Q325 13 317 4T295 -5Q281 -5 273 4T264 27V342L15 662Q8 670 8 681Q8 692 16 700T35 709Q48 709 57 697L295 389L533 697Q542 709
555 709Z" />
<glyph unicode="Z" glyph-name="Z" horiz-adv-x="584" d="M538 53T545 47T553 27Q553 14 546 7T524 0H68Q54 0 46 7T38 26Q38 38 47 50L465 652H66Q54 652 47 659T39 678Q39 691 46 698T66 705H513Q527 705 535 698T543 678Q543 666 535 655L116 53H524Q538 53 545 47Z" />
<glyph unicode="[" glyph-name="bracketleft" horiz-adv-x="297" d="M157 -180T134 -156T111 -87V612Q111 657 134 681T202 705H268Q282 705 289 699T297 681Q297 669 289 662T268 655H215Q171 655 171 609V-84Q171 -130 215 -130H268Q281 -130 289 -137T297 -156Q297
-167 290 -173T268 -180H202Q157 -180 134 -156Z" />
<glyph unicode="\" glyph-name="backslash" horiz-adv-x="269" d="M-12 706Q-14 714 -14 717Q-14 730 -6 738T15 747Q24 747 31 742T42 725L280 -18Q282 -26 282 -30Q282 -43 274 -51T254 -59Q245 -59 238 -54T227 -37L-12 706Z" />
<glyph unicode="]" glyph-name="bracketright" horiz-adv-x="297" d="M15 -180T8 -174T0 -156Q0 -144 8 -137T29 -130H82Q126 -130 126 -84V609Q126 655 82 655H29Q16 655 8 662T0 681Q0 692 7 698T29 705H95Q140 705 163 681T186 612V-87Q186 -132 163 -156T95
-180H29Q15 -180 8 -174Z" />
<glyph unicode="^" glyph-name="asciicircum" horiz-adv-x="600" d="M535 172T535 165Q535 154 527 147T509 140Q496 140 490 152L300 562L110 152Q104 140 92 140Q82 140 74 147T65 166Q65 172 68 179L266 606Q276 628 300 628Q311 628 320 622T334 606L532 179Q535
172 535 165Z" />
<glyph unicode="_" glyph-name="underscore" horiz-adv-x="500" d="M14 -43T7 -37T0 -22Q0 -13 7 -7T25 0H475Q486 0 493 -6T500 -22Q500 -31 493 -37T475 -43H25Q14 -43 7 -37Z" />
<glyph unicode="`" glyph-name="grave" horiz-adv-x="300" d="M-11 693Q-28 709 -28 726Q-28 739 -19 747T3 756Q22 756 38 736L163 575Q168 568 168 562Q168 555 163 550T150 545Q142 545 136 551L-11 693Z" />
<glyph unicode="a" glyph-name="a" horiz-adv-x="526" d="M360 497T403 451T447 312V27Q447 13 439 5T417 -4Q403 -4 395 4T387 27V87Q366 42 326 18T234 -7Q187 -7 148 12T87 65T64 140Q64 194 92 224T185 267T366 280H387V317Q387 383 360 413T275 444Q201 444
134 405Q131 403 119 395T97 386Q87 386 81 393T74 412Q74 434 109 455Q144 475 187 486T272 497Q360 497 403 451ZM304 46T345 90T387 202V235H368Q272 235 221 227T149 200T128 143Q128 101 160 74T239 46Q304 46 345 90Z" />
<glyph unicode="b" glyph-name="b" horiz-adv-x="573" d="M372 497T421 466T497 379T524 247Q524 171 497 114T421 25T308 -7Q249 -7 206 18T141 93V27Q141 13 133 5T111 -4Q97 -4 89 4T80 27V679Q80 693 88 701T111 710Q125 710 133 702T141 679V397Q163 446
206 471T308 497Q372 497 421 466ZM376 47T418 100T461 247Q461 341 419 392T299 444Q223 444 182 392T141 245Q141 150 182 99T300 47Q376 47 418 100Z" />
<glyph unicode="c" glyph-name="c" horiz-adv-x="475" d="M207 -7T156 24T77 112T49 243Q49 318 77 375T157 465T276 497Q314 497 350 487T414 457Q432 444 439 434T447 411Q447 400 441 393T426 386Q416 386 394 403Q368 422 342 433T279 444Q201 444 157 391T113
243Q113 150 156 99T278 47Q316 47 341 58T397 88Q406 94 414 99T428 104Q438 104 444 97T450 80Q450 68 443 59T416 36Q389 16 351 5T274 -7Q207 -7 156 24Z" />
<glyph unicode="d" glyph-name="d" horiz-adv-x="573" d="M476 710T484 702T493 679V27Q493 13 485 5T462 -4Q448 -4 440 4T432 27V93Q410 44 367 19T265 -7Q201 -7 152 24T76 113T49 247Q49 322 76 378T152 466T265 497Q324 497 367 472T432 397V679Q432 693
440 701T462 710Q476 710 484 702ZM349 47T390 98T432 245Q432 340 391 392T274 444Q197 444 155 393T113 247Q113 152 155 100T273 47Q349 47 390 98Z" />
<glyph unicode="e" glyph-name="e" horiz-adv-x="526" d="M461 104T467 97T474 79Q474 57 440 36Q368 -7 288 -7Q177 -7 113 60T49 244Q49 319 77 376T157 465T276 497Q370 497 424 437T479 270Q479 252 471 244T445 235H112Q115 143 160 95T287 47Q330 47 359
58T421 89Q443 104 452 104Q461 104 467 97ZM206 447T164 403T114 280H423Q421 360 383 403T276 447Q206 447 164 403Z" />
<glyph unicode="f" glyph-name="f" horiz-adv-x="315" d="M223 650T194 619T165 522V485H286Q299 485 306 478T313 460Q313 449 306 443T286 436H165V26Q165 12 156 4T134 -5Q120 -5 112 3T104 26V436H28Q16 436 9 442T2 460Q2 471 9 478T28 485H104V510Q104 598
146 648T270 704L296 706Q335 709 335 683Q335 659 306 656L280 654Q223 650 194 619Z" />
<glyph unicode="g" glyph-name="g" horiz-adv-x="577" d="M480 495T488 487T497 464V28Q497 -78 445 -132T289 -187Q235 -187 193 -177T113 -144Q77 -122 77 -101Q77 -90 83 -83T100 -76Q106 -76 116 -81T131 -89Q165 -108 201 -120T290 -133Q363 -133 400 -94T437
22V117Q416 68 373 42T267 15Q203 15 154 45T77 130T49 256Q49 327 76 382T153 467T267 497Q328 497 371 472T436 397V464Q436 478 444 486T466 495Q480 495 488 487ZM351 69T393 119T436 256Q436 343 393 393T275 444Q199 444 156 394T113 256Q113 168 156 119T275
69Q351 69 393 119Z" />
<glyph unicode="h" glyph-name="h" horiz-adv-x="561" d="M482 497T482 309V26Q482 12 474 4T452 -5Q438 -5 430 3T421 26V305Q421 377 392 410T300 443Q228 443 185 399T141 281V26Q141 12 133 4T111 -5Q97 -5 89 3T80 26V679Q80 693 88 701T111 710Q125 710
133 702T141 679V404Q164 449 207 473T307 497Q482 497 482 309Z" />
<glyph unicode="i" glyph-name="i" horiz-adv-x="222" d="M97 -5T89 3T80 26V464Q80 479 88 487T111 495Q125 495 133 487T141 464V26Q141 11 133 3T111 -5Q97 -5 89 3ZM91 608T79 620T66 651Q66 671 78 683T111 695Q131 695 143 683T156 651Q156 632 144 620T111
608Q91 608 79 620Z" />
<glyph unicode="j" glyph-name="j" horiz-adv-x="222" d="M-74 -185T-74 -158Q-74 -135 -45 -132L-18 -130Q32 -127 56 -101T80 -12V464Q80 479 88 487T111 495Q125 495 133 487T141 464V-9Q141 -94 105 -134T-8 -180L-35 -182Q-74 -185 -74 -158ZM91 608T79 620T66
651Q66 671 78 683T111 695Q131 695 143 683T156 651Q156 632 144 620T111 608Q91 608 79 620Z" />
<glyph unicode="k" glyph-name="k" horiz-adv-x="484" d="M461 36T461 23Q461 12 453 4T434 -5Q424 -5 413 4L141 236V26Q141 11 133 3T111 -5Q97 -5 89 3T80 26V679Q80 694 88 702T111 710Q124 710 132 702T141 679V261L390 485Q401 494 411 494Q423 494 431
486T440 465Q440 450 428 441L212 250L448 48Q461 36 461 23Z" />
<glyph unicode="l" glyph-name="l" horiz-adv-x="222" d="M97 -5T89 3T80 26V679Q80 694 88 702T111 710Q124 710 132 702T141 679V26Q141 11 133 3T111 -5Q97 -5 89 3Z" />
<glyph unicode="m" glyph-name="m" horiz-adv-x="843" d="M765 497T765 309V26Q765 12 757 4T735 -5Q721 -5 713 3T704 26V305Q704 378 678 410T595 443Q530 443 492 399T453 281V26Q453 12 445 4T423 -5Q409 -5 401 3T392 26V305Q392 378 366 410T283 443Q218
443 180 399T141 281V26Q141 12 133 4T111 -5Q97 -5 89 3T80 26V464Q80 479 88 487T111 495Q125 495 132 487T140 465V405Q161 450 200 473T292 497Q407 497 441 401Q462 446 505 471T604 497Q765 497 765 309Z" />
<glyph unicode="n" glyph-name="n" horiz-adv-x="561" d="M482 497T482 309V26Q482 12 474 4T452 -5Q438 -5 430 3T421 26V305Q421 377 392 410T300 443Q228 443 185 399T141 281V26Q141 12 133 4T111 -5Q97 -5 89 3T80 26V464Q80 478 88 486T111 495Q124 495
132 487T140 465V402Q163 448 206 472T307 497Q482 497 482 309Z" />
<glyph unicode="o" glyph-name="o" horiz-adv-x="545" d="M206 -7T156 24T77 112T49 245Q49 321 77 378T155 466T273 497Q339 497 390 466T468 378T496 245Q496 169 469 112T390 24T273 -7Q206 -7 156 24ZM349 47T391 98T433 245Q433 339 391 391T273 444Q197
444 155 392T113 245Q113 149 154 98T272 47Q349 47 391 98Z" />
<glyph unicode="p" glyph-name="p" horiz-adv-x="573" d="M372 497T421 466T497 377T524 243Q524 168 497 112T421 24T308 -7Q249 -7 206 18T141 93V-154Q141 -168 133 -176T111 -185Q97 -185 89 -177T80 -154V464Q80 478 88 486T111 495Q125 495 133 487T141
464V397Q163 446 206 471T308 497Q372 497 421 466ZM376 47T418 98T461 243Q461 338 419 391T300 444Q224 444 183 392T141 245Q141 150 182 99T299 47Q376 47 418 98Z" />
<glyph unicode="q" glyph-name="q" horiz-adv-x="573" d="M476 495T484 487T493 464V-154Q493 -168 485 -176T462 -185Q448 -185 440 -177T432 -154V93Q410 44 367 19T265 -7Q201 -7 152 24T76 111T49 243Q49 319 76 376T152 465T265 497Q324 497 367 472T432
397V464Q432 478 440 486T462 495Q476 495 484 487ZM350 47T391 98T432 245Q432 340 391 392T273 444Q197 444 155 391T113 243Q113 149 155 98T274 47Q350 47 391 98Z" />
<glyph unicode="r" glyph-name="r" horiz-adv-x="339" d="M325 496T333 490T341 470Q341 445 311 442L281 439Q210 432 176 388T141 285V26Q141 11 133 3T111 -5Q97 -5 89 3T80 26V464Q80 479 88 487T111 495Q124 495 132 487T140 465V400Q181 486 292 494L306
495Q325 496 333 490Z" />
<glyph unicode="s" glyph-name="s" horiz-adv-x="478" d="M195 -7T155 4T83 36Q64 49 57 58T49 80Q49 90 55 97T71 104Q80 104 102 89Q131 70 161 58T238 46Q297 46 330 67T363 129Q363 153 351 168T311 195T231 218Q142 238 105 269T67 354Q67 418 117 457T247
497Q286 497 321 487T383 458Q418 434 418 411Q418 401 412 394T396 386Q386 386 365 402Q338 421 312 432T244 444Q192 444 161 421T130 357Q130 334 140 319T176 293T250 270Q319 254 356 236T409 193T425 129Q425 68 374 31T237 -7Q195 -7 155 4Z" />
<glyph unicode="t" glyph-name="t" horiz-adv-x="327" d="M319 43T319 20Q319 8 310 1T281 -5L253 -3Q177 2 141 43T104 170V436H28Q16 436 9 442T2 460Q2 471 9 478T28 485H104V609Q104 624 112 632T134 640Q148 640 156 632T165 609V485H286Q299 485 306 478T313
460Q313 449 306 443T286 436H165V167Q165 105 189 79T264 48L291 46Q319 43 319 20Z" />
<glyph unicode="u" glyph-name="u" horiz-adv-x="553" d="M456 495T464 487T473 464V26Q473 12 465 4T442 -5Q429 -5 421 3T413 26V87Q390 41 348 17T251 -7Q165 -7 122 40T78 181V464Q78 478 86 486T109 495Q123 495 131 487T139 464V185Q139 114 167 81T257
47Q327 47 369 91T412 210V464Q412 478 420 486T442 495Q456 495 464 487Z" />
<glyph unicode="v" glyph-name="v" horiz-adv-x="509" d="M444 495T462 495Q473 495 482 487T491 468Q491 461 488 455L290 20Q285 9 276 3T255 -3Q243 -3 234 3T219 20L20 455Q17 461 17 467Q17 479 27 487T50 496Q69 496 76 478L256 74L436 477Q444 495 462 495Z" />
<glyph unicode="w" glyph-name="w" horiz-adv-x="836" d="M755 494T773 494Q785 494 794 486T803 466Q803 464 801 456L634 20Q630 9 621 3T600 -3Q589 -3 580 3T566 20L418 402L271 20Q267 9 258 3T237 -3Q226 -3 217 3T203 20L35 455Q33 461 33 465Q33 477 43
486T66 495Q85 495 92 476L238 80L389 473Q393 484 402 490T420 496Q430 496 438 490T451 473L600 81L748 475Q755 494 773 494Z" />
<glyph unicode="x" glyph-name="x" horiz-adv-x="512" d="M478 39T478 25Q478 13 470 5T450 -4Q436 -4 427 8L256 206L85 8Q75 -4 62 -4Q51 -4 43 4T34 25Q34 38 43 48L218 248L49 443Q40 454 40 465Q40 478 48 486T68 495Q81 495 92 483L256 291L421 483Q432
495 444 495Q455 495 463 487T472 466Q472 453 463 443L294 248L469 48Q478 39 478 25Z" />
<glyph unicode="y" glyph-name="y" horiz-adv-x="509" d="M444 495T462 495Q473 495 482 487T491 468Q491 461 488 455L205 -166Q197 -183 179 -183Q168 -183 160 -176T151 -158Q151 -152 154 -146L225 9L20 455Q17 461 17 467Q17 479 27 487T50 496Q69 496 76
478L256 74L436 477Q444 495 462 495Z" />
<glyph unicode="z" glyph-name="z" horiz-adv-x="499" d="M447 50T454 43T461 25Q461 14 454 7T434 0H78Q63 0 55 8T46 28Q46 42 56 53L370 436H72Q60 436 53 442T46 460Q46 471 53 478T72 485H418Q433 485 442 477T451 457Q451 444 441 433L127 50H434Q447 50 454 43Z" />
<glyph unicode="{" glyph-name="braceleft" horiz-adv-x="334" d="M318 -130T326 -137T334 -156Q334 -167 327 -173T305 -180H239Q194 -180 171 -156T148 -87V156Q148 197 132 216T74 237Q45 240 45 263Q45 273 52 280T74 288Q115 291 131 310T148 370V612Q148
657 171 681T239 705H305Q319 705 326 699T334 681Q334 669 326 662T305 655H252Q208 655 208 609V364Q208 321 188 296T137 263Q167 256 187 231T208 162V-84Q208 -130 252 -130H305Q318 -130 326 -137Z" />
<glyph unicode="|" glyph-name="bar" horiz-adv-x="253" d="M114 -185T105 -176T96 -154V679Q96 692 105 701T126 710Q139 710 148 701T157 679V-154Q157 -168 149 -176T126 -185Q114 -185 105 -176Z" />
<glyph unicode="}" glyph-name="braceright" horiz-adv-x="334" d="M288 287T288 263Q288 240 259 237Q219 235 204 217T188 156L186 -87Q186 -132 163 -156T95 -180H29Q15 -180 8 -174T0 -156Q0 -144 8 -137T29 -130H82Q126 -130 126 -84V162Q126 205 146 230T196
263Q167 270 147 295T126 364V609Q126 655 82 655H29Q16 655 8 662T0 681Q0 692 7 698T29 705H95Q140 705 163 681T186 612V370Q186 329 202 310T259 288Q288 287 288 263Z" />
<glyph unicode="~" glyph-name="asciitilde" horiz-adv-x="600" d="M385 218T356 229T281 265Q249 283 228 292T186 301Q137 301 111 257Q102 242 88 242Q81 242 75 245Q64 250 64 264Q64 272 68 279Q107 350 183 350Q215 350 244 339T319 303Q351 285 372 276T414
267Q463 267 489 311Q499 326 513 326Q519 326 525 323Q536 317 536 303Q536 296 532 289Q491 218 417 218Q385 218 356 229Z" />
<glyph unicode="&#xa0;" glyph-name="uni00A0" horiz-adv-x="252" />
<glyph unicode="&#xa1;" glyph-name="exclamdown" horiz-adv-x="220" d="M90 400T77 413T64 447Q64 468 77 481T110 495Q130 495 143 482T157 447Q157 426 144 413T110 400Q90 400 77 413ZM94 -185T84 -175T75 -148L91 301Q93 322 111 322Q119 322 124 317T130
301L146 -148Q147 -164 137 -174T111 -185Q94 -185 84 -175Z" />
<glyph unicode="&#xa2;" glyph-name="cent" horiz-adv-x="600" d="M484 104T490 97T497 80Q497 69 490 60T463 36Q440 19 408 8T343 -6V-90Q343 -103 336 -111T316 -120Q303 -120 296 -112T288 -90V-5Q201 6 149 73T96 243Q96 346 148 414T288 495V580Q288 593
295 601T316 610Q328 610 335 602T343 580V496Q412 491 460 457Q479 444 486 434T494 411Q494 401 488 394T472 386Q462 386 441 402Q414 421 389 432T326 444Q248 444 204 391T160 243Q160 150 203 99T325 47Q362 47 387 57T444 88Q453 94 461 99T475 104Q484
104 490 97Z" />
<glyph unicode="&#xa3;" glyph-name="sterling" horiz-adv-x="600" d="M548 54T556 47T564 27Q564 14 557 7T535 0H72Q59 0 52 7T44 27Q44 39 51 46T72 54H155V328H68Q58 328 51 335T44 353Q44 364 51 371T68 378H155V523Q155 611 204 662T340 713Q401 713 454
690T550 626Q564 613 564 597Q564 586 558 578T543 570Q535 570 520 580Q467 625 427 642T341 659Q284 659 250 625T216 518V378H383Q394 378 401 371T408 353Q408 342 401 335T383 328H216V54H535Q548 54 556 47Z" />
<glyph unicode="&#xa4;" glyph-name="currency" horiz-adv-x="600" d="M101 36T94 43T87 60Q88 68 96 76L137 117Q115 144 104 178T93 250Q93 325 136 380L96 422Q87 430 87 439Q87 448 94 455T111 462Q119 462 127 454L168 413Q222 454 300 454Q377 454 433 413L474
454Q481 461 490 461Q499 461 506 455T514 438Q514 430 506 422L464 380Q508 326 508 250Q508 214 497 179T464 117L506 77Q512 69 514 59Q513 49 505 42T488 35Q480 37 474 43L430 86Q378 45 300 45Q227 45 170 85L127 43Q119 35 110 35Q101 36 94 43ZM348 93T382
115T433 173T451 250Q451 290 434 326T382 384T300 407Q252 407 218 385T167 326T149 250Q149 210 166 174T218 116T300 93Q348 93 382 115Z" />
<glyph unicode="&#xa5;" glyph-name="yen" horiz-adv-x="600" d="M545 709T558 709Q569 709 577 701T586 681Q586 670 579 662L360 380H507Q517 380 524 373T531 355Q531 344 524 337T507 330H331V230H507Q517 230 524 223T531 205Q531 194 524 187T507 180H331V27Q331
13 323 4T300 -5Q286 -5 278 4T269 27V180H93Q83 180 76 187T69 205Q69 216 76 223T93 230H269V330H93Q83 330 76 337T69 355Q69 366 76 373T93 380H241L21 662Q14 670 14 681Q14 692 22 700T42 709Q55 709 64 697L300 393L536 697Q545 709 558 709Z" />
<glyph unicode="&#xa6;" glyph-name="brokenbar" horiz-adv-x="253" d="M114 366T105 375T96 397V679Q96 692 105 701T126 710Q139 710 148 701T157 679V397Q157 384 149 375T126 366Q114 366 105 375ZM114 -185T105 -176T96 -154V128Q96 141 104 150T126 159Q139
159 148 150T157 128V-154Q157 -167 148 -176T126 -185Q114 -185 105 -176Z" />
<glyph unicode="&#xa7;" glyph-name="section" horiz-adv-x="524" d="M480 150T466 118T425 62Q441 29 441 -16Q441 -94 391 -140T256 -187Q209 -187 168 -176T96 -144Q77 -131 70 -122T63 -100Q63 -90 69 -83T84 -76Q93 -76 114 -90Q146 -110 177 -122T256 -134Q316
-134 348 -104T381 -17Q381 27 359 57T282 114L196 157Q113 198 79 240T44 341Q44 376 59 409T98 465Q84 496 84 541Q84 619 135 665T271 712Q358 712 411 673Q430 659 438 648T446 625Q446 615 440 608T424 601Q419 601 411 605T394 616Q369 635 341 647T270 659Q210
659 178 629T145 543Q145 499 166 470T242 412L328 368Q411 325 445 284T480 184Q480 150 466 118ZM363 136T394 104Q421 141 421 184Q421 221 396 249T308 310L226 354Q161 389 130 420Q104 388 104 341Q104 305 129 277T217 215L298 171Q363 136 394 104Z" />
<glyph unicode="&#xa8;" glyph-name="dieresis" horiz-adv-x="300" d="M49 610T37 621T25 651Q25 670 37 681T67 693Q85 693 97 681T110 651Q110 633 98 622T67 610Q49 610 37 621ZM215 610T203 621T190 651Q190 669 202 681T233 693Q251 693 263 681T275 651Q275
633 263 622T233 610Q215 610 203 621Z" />
<glyph unicode="&#xa9;" glyph-name="copyright" horiz-adv-x="815" d="M308 -5T226 42T97 171T50 353Q50 453 97 534T226 663T408 710Q508 710 589 663T718 535T765 353Q765 253 718 172T589 43T408 -5Q308 -5 226 42ZM496 35T568 77T681 192T723 353Q723 441
682 513T568 628T408 670Q319 670 247 628T134 514T92 353Q92 265 133 192T247 77T408 35Q496 35 568 77ZM323 137T269 195T215 353Q215 453 269 510T413 568Q487 568 550 520Q561 511 561 497Q561 487 556 480T542 472Q535 472 523 479Q491 501 469 510T415 520Q348
520 312 477T276 353Q276 272 312 229T415 185Q447 185 469 194T523 226Q535 233 542 233Q551 233 556 226T561 208Q561 195 550 185Q526 161 490 149T413 137Q323 137 269 195Z" />
<glyph unicode="&#xaa;" glyph-name="ordfeminine" horiz-adv-x="328" d="M222 710T251 682T280 593V436Q280 423 272 416T252 408Q241 408 233 415T225 436V458Q213 435 190 422T137 408Q92 408 63 434T34 496Q34 529 50 547T105 574T210 582H225V601Q225 635
210 650T165 666Q123 666 84 644Q66 634 61 634Q52 634 47 640T42 656Q42 673 64 685Q85 696 112 703T167 710Q222 710 251 682ZM180 451T202 473T225 533V549H214Q162 549 136 544T100 529T90 501Q90 480 106 466T147 451Q180 451 202 473Z" />
<glyph unicode="&#xab;" glyph-name="guillemotleft" horiz-adv-x="416" d="M62 246Q56 257 56 265Q56 275 62 284L144 424Q152 439 170 439Q179 439 186 433T193 418Q193 413 190 405L120 265L190 125Q193 118 193 112Q193 103 186 97T170 91Q153 91 144 107L62
246ZM231 246Q225 257 225 265Q225 275 231 284L313 424Q321 439 339 439Q348 439 355 433T362 418Q362 413 359 405L289 265L359 125Q362 118 362 112Q362 103 355 97T339 91Q322 91 313 107L231 246Z" />
<glyph unicode="&#xac;" glyph-name="logicalnot" horiz-adv-x="600" d="M508 154T502 161T496 180V364H83Q72 364 64 372T56 391Q56 401 64 407T83 414H517Q528 414 536 406T544 387V180Q544 169 536 162T517 154Q508 154 502 161Z" />
<glyph unicode="&#xad;" glyph-name="uni00AD" horiz-adv-x="421" d="M84 240T77 247T69 265Q69 277 76 284T97 292H324Q337 292 344 285T352 265Q352 254 345 247T324 240H97Q84 240 77 247Z" />
<glyph unicode="&#xae;" glyph-name="registered" horiz-adv-x="815" d="M508 710T589 663T718 535T765 353Q765 253 718 172T589 43T408 -5Q308 -5 226 42T97 171T50 353Q50 453 97 534T226 663T408 710Q508 710 589 663ZM496 35T568 77T681 192T723 353Q723
441 682 513T568 628T408 670Q319 670 247 628T134 514T92 353Q92 265 133 192T247 77T408 35Q496 35 568 77ZM584 174Q589 168 589 159Q589 149 581 143T562 136Q544 136 533 153L455 276Q441 299 425 307T382 316H322V166Q322 152 315 145T294 137Q281 137 273
144T265 166V535Q265 548 272 555T293 563H435Q502 563 539 532T577 441Q577 389 548 359T467 322Q482 318 494 307T519 277L584 174ZM428 364Q473 364 496 381T519 440Q519 481 497 498T428 516H322V364H428Z" />
<glyph unicode="&#xaf;" glyph-name="overscore" horiz-adv-x="300" d="M14 626T6 632T-3 651Q-3 664 5 670T29 677H271Q286 677 294 671T303 651Q303 639 295 633T271 626H29Q14 626 6 632Z" />
<glyph unicode="&#xb0;" glyph-name="degree" horiz-adv-x="364" d="M142 423T110 441T58 493T39 566Q39 607 58 640T109 691T182 710Q243 710 284 669T325 566Q325 505 284 464T182 423Q142 423 110 441ZM223 469T249 496T275 566Q275 609 249 636T182 664Q141
664 115 637T89 566Q89 523 115 496T182 469Q223 469 249 496Z" />
<glyph unicode="&#xb1;" glyph-name="plusminus" horiz-adv-x="600" d="M72 298T64 306T56 325Q56 335 64 341T83 348H275V501Q275 512 283 520T302 528Q312 528 318 520T325 501V348H517Q528 348 536 340T544 321Q544 311 536 305T517 298H325V146Q325 135 317
127T298 118Q288 118 282 126T275 145V298H83Q72 298 64 306ZM534 51T542 43T550 24Q550 14 542 7T523 0H89Q78 0 70 8T62 27Q62 37 70 44T89 51H523Q534 51 542 43Z" />
<glyph unicode="&#xb2;" glyph-name="uni00B2" horiz-adv-x="380" d="M337 330T337 306Q337 282 310 282H77Q65 282 58 289T50 307Q50 318 61 331L202 486Q231 518 244 543T257 595Q257 628 238 644T184 661Q159 661 135 651T82 621Q71 613 62 613Q54 613 49 621T43
638Q43 651 54 661Q79 682 115 695T187 709Q247 709 281 678T315 597Q315 561 299 528T245 454L129 330H310Q337 330 337 306Z" />
<glyph unicode="&#xb3;" glyph-name="uni00B3" horiz-adv-x="380" d="M284 489T303 464T323 397Q323 342 285 311T182 279Q145 279 109 292T47 327Q36 337 36 350Q36 359 41 367T55 375Q64 375 75 367Q102 348 127 338T181 327Q268 327 268 400Q268 473 175 473H143Q132
473 125 480T118 497Q118 506 125 513T143 520H165Q209 520 233 539T257 595Q257 627 238 644T183 661Q158 661 134 651T81 621Q70 613 61 613Q53 613 48 621T42 639Q42 652 53 661Q78 682 114 695T185 709Q246 709 280 679T314 599Q314 562 296 537T247 499Q284
489 303 464Z" />
<glyph unicode="&#xb4;" glyph-name="acute" horiz-adv-x="300" d="M158 545T150 545Q143 545 138 550T132 562Q132 568 137 575L262 736Q277 756 297 756Q310 756 319 748T328 726Q328 709 311 693L164 551Q158 545 150 545Z" />
<glyph unicode="&#xb5;" glyph-name="uni00B5" horiz-adv-x="553" d="M456 495T464 487T473 464V26Q473 11 465 3T442 -5Q429 -5 421 3T413 26V87Q390 41 348 17T251 -7Q181 -7 139 28V-154Q139 -169 131 -177T109 -185Q95 -185 87 -177T78 -154V464Q78 479 86
487T109 495Q123 495 131 487T139 464V185Q139 110 169 79T257 47Q324 47 368 90T412 210V464Q412 479 420 487T442 495Q456 495 464 487Z" />
<glyph unicode="&#xb6;" glyph-name="paragraph" horiz-adv-x="569" d="M258 -185T250 -177T241 -155V323Q184 323 141 347T74 415T50 514Q50 569 74 612T141 680T243 705H448Q461 705 469 697T477 675V-155Q477 -168 469 -176T449 -185Q437 -185 429 -177T420
-155V652H298V-155Q298 -168 290 -176T270 -185Q258 -185 250 -177Z" />
<glyph unicode="&#xb7;" glyph-name="middot" horiz-adv-x="220" d="M91 217T78 230T64 265Q64 287 77 300T111 313Q130 313 143 300T157 265Q157 244 144 231T111 217Q91 217 78 230Z" />
<glyph unicode="&#xb8;" glyph-name="cedilla" horiz-adv-x="300" d="M222 -41T244 -58T266 -110Q266 -146 236 -168T153 -191Q114 -191 85 -180Q69 -173 69 -158Q69 -150 75 -145T90 -139Q96 -139 99 -140Q127 -148 155 -148Q185 -148 200 -138T215 -110Q215
-96 207 -89T183 -81Q171 -81 154 -86T131 -91Q124 -91 118 -86T112 -72L122 20H172L165 -45Q181 -41 192 -41Q222 -41 244 -58Z" />
<glyph unicode="&#xb9;" glyph-name="uni00B9" horiz-adv-x="380" d="M322 330T322 306Q322 282 295 282H135Q122 282 115 288T108 306Q108 317 115 323T135 330H187V638L132 603Q126 600 121 600Q111 600 105 608T98 628Q98 641 108 648L190 700Q204 708 215
708Q227 708 235 701T243 679V330H295Q322 330 322 306Z" />
<glyph unicode="&#xba;" glyph-name="ordmasculine" horiz-adv-x="333" d="M100 408T62 449T24 560Q24 628 62 669T166 710Q231 710 270 669T309 560Q309 491 270 450T166 408Q100 408 62 449ZM208 454T229 481T251 560Q251 610 230 637T166 664Q125 664 103 637T81
560Q81 509 102 482T166 454Q208 454 229 481Z" />
<glyph unicode="&#xbb;" glyph-name="guillemotright" horiz-adv-x="416" d="M94 91T78 91Q68 91 61 97T54 113Q54 119 57 125L128 265L57 405Q54 411 54 417Q54 426 61 432T78 439Q95 439 103 424L185 284Q190 277 190 265Q190 255 185 246L103 107Q94 91 78
91ZM263 91T247 91Q237 91 230 97T223 113Q223 119 226 125L297 265L226 405Q223 411 223 417Q223 426 230 432T247 439Q264 439 272 424L354 284Q359 277 359 265Q359 255 354 246L272 107Q263 91 247 91Z" />
<glyph unicode="&#xbc;" glyph-name="onequarter" horiz-adv-x="926" d="M322 330T322 306Q322 282 295 282H135Q122 282 115 288T108 306Q108 317 115 323T135 330H187V638L132 603Q126 600 121 600Q111 600 105 608T98 628Q98 641 108 648L190 700Q204 708 215
708Q227 708 235 701T243 679V330H295Q322 330 322 306ZM281 -17T265 -17Q255 -17 247 -9T239 11Q239 22 244 29L634 704Q645 722 661 722Q671 722 679 714T687 694Q687 684 682 676L292 1Q281 -17 265 -17ZM889 136T896 130T904 112Q904 101 897 95T876 89H836V25Q836
12 828 5T808 -3Q794 -3 787 4T779 25V89H607Q595 89 588 96T580 113Q580 124 588 135L782 414Q790 426 806 426Q818 426 827 419T836 397V136H876Q889 136 896 130ZM643 136H779V331L643 136Z" />
<glyph unicode="&#xbd;" glyph-name="onehalf" horiz-adv-x="926" d="M322 330T322 306Q322 282 295 282H135Q122 282 115 288T108 306Q108 317 115 323T135 330H187V638L132 603Q126 600 121 600Q111 600 105 608T98 628Q98 641 108 648L190 700Q204 708 215
708Q227 708 235 701T243 679V330H295Q322 330 322 306ZM281 -17T265 -17Q255 -17 247 -9T239 11Q239 22 244 29L634 704Q645 722 661 722Q671 722 679 714T687 694Q687 684 682 676L292 1Q281 -17 265 -17ZM883 48T883 24Q883 0 856 0H623Q611 0 604 7T596 25Q596
36 607 49L748 204Q777 236 790 261T803 313Q803 346 784 362T730 379Q705 379 681 369T628 339Q617 331 608 331Q600 331 595 339T589 356Q589 369 600 379Q625 400 661 413T733 427Q793 427 827 396T861 315Q861 279 845 246T791 172L675 48H856Q883 48 883 24Z"
/>
<glyph unicode="&#xbe;" glyph-name="threequarters" horiz-adv-x="926" d="M284 489T303 464T323 397Q323 342 285 311T182 279Q145 279 109 292T47 327Q36 337 36 350Q36 359 41 367T55 375Q64 375 75 367Q102 348 127 338T181 327Q268 327 268 400Q268 473
175 473H143Q132 473 125 480T118 497Q118 506 125 513T143 520H165Q209 520 233 539T257 595Q257 627 238 644T183 661Q158 661 134 651T81 621Q70 613 61 613Q53 613 48 621T42 639Q42 652 53 661Q78 682 114 695T185 709Q246 709 280 679T314 599Q314 562 296
537T247 499Q284 489 303 464ZM281 -17T265 -17Q255 -17 247 -9T239 11Q239 22 244 29L634 704Q645 722 661 722Q671 722 679 714T687 694Q687 684 682 676L292 1Q281 -17 265 -17ZM889 136T896 130T904 112Q904 101 897 95T876 89H836V25Q836 12 828 5T808 -3Q794
-3 787 4T779 25V89H607Q595 89 588 96T580 113Q580 124 588 135L782 414Q790 426 806 426Q818 426 827 419T836 397V136H876Q889 136 896 130ZM643 136H779V331L643 136Z" />
<glyph unicode="&#xbf;" glyph-name="questiondown" horiz-adv-x="436" d="M213 400T200 413T187 447Q187 468 200 481T233 495Q254 495 267 482T280 447Q280 427 267 414T233 400Q213 400 200 413ZM131 -187T80 -146T28 -38Q28 -1 40 28T69 78T116 129Q161 175
185 212T214 304Q215 312 220 317T234 322Q242 322 247 316T253 300Q253 254 241 219T210 160T162 103Q126 64 109 35T91 -35Q91 -79 125 -106T217 -133Q265 -133 306 -115T396 -56Q408 -46 419 -46Q428 -46 433 -54T439 -73Q439 -90 426 -102Q387 -141 330 -164T216
-187Q131 -187 80 -146Z" />
<glyph unicode="&#xc0;" glyph-name="Agrave" horiz-adv-x="720" d="M688 27T688 21Q688 10 679 3T658 -5Q650 -5 643 0T631 14L555 188H167L90 14Q81 -5 62 -5Q50 -5 42 2T33 22Q33 29 35 33L327 689Q336 711 360 711Q371 711 380 705T394 689L685 33Q688 27
688 21ZM190 242H531L361 629L190 242ZM227 859Q208 874 208 891Q208 903 217 911T239 920Q255 920 269 905L372 790Q378 784 378 777Q378 770 373 765T360 760Q353 760 348 764L227 859Z" />
<glyph unicode="&#xc1;" glyph-name="Aacute" horiz-adv-x="720" d="M688 27T688 21Q688 10 679 3T658 -5Q650 -5 643 0T631 14L555 188H167L90 14Q81 -5 62 -5Q50 -5 42 2T33 22Q33 29 35 33L327 689Q336 711 360 711Q371 711 380 705T394 689L685 33Q688 27
688 21ZM190 242H531L361 629L190 242ZM367 760T360 760Q353 760 348 765T342 777Q342 784 348 790L451 905Q465 920 481 920Q494 920 503 912T512 890Q512 874 493 859L372 764Q367 760 360 760Z" />
<glyph unicode="&#xc2;" glyph-name="Acircumflex" horiz-adv-x="720" d="M688 27T688 21Q688 10 679 3T658 -5Q650 -5 643 0T631 14L555 188H167L90 14Q81 -5 62 -5Q50 -5 42 2T33 22Q33 29 35 33L327 689Q336 711 360 711Q371 711 380 705T394 689L685 33Q688
27 688 21ZM190 242H531L361 629L190 242ZM263 759T252 759Q242 759 235 766T227 785Q227 796 236 806L328 905Q342 920 360 920Q377 920 392 905L484 806Q493 797 493 785Q493 775 486 768T468 760Q456 760 448 769L360 871L272 769Q263 759 252 759Z" />
<glyph unicode="&#xc3;" glyph-name="Atilde" horiz-adv-x="720" d="M688 27T688 21Q688 10 679 3T658 -5Q650 -5 643 0T631 14L555 188H167L90 14Q81 -5 62 -5Q50 -5 42 2T33 22Q33 29 35 33L327 689Q336 711 360 711Q371 711 380 705T394 689L685 33Q688 27
688 21ZM190 242H531L361 629L190 242ZM412 793T394 799T349 818Q346 820 333 826T309 835T291 838Q273 838 263 831T244 810Q240 804 235 800T225 795Q217 795 212 801T206 816Q206 832 216 849T246 878T291 890Q308 890 326 884T371 865Q374 863 387 857T411
848T429 845Q448 845 458 853T476 874Q480 880 485 884T495 889Q503 889 508 883T514 868Q514 852 504 835T474 805T429 793Q412 793 394 799Z" />
<glyph unicode="&#xc4;" glyph-name="Adieresis" horiz-adv-x="720" d="M688 27T688 21Q688 10 679 3T658 -5Q650 -5 643 0T631 14L555 188H167L90 14Q81 -5 62 -5Q50 -5 42 2T33 22Q33 29 35 33L327 689Q336 711 360 711Q371 711 380 705T394 689L685 33Q688
27 688 21ZM190 242H531L361 629L190 242ZM259 800T247 811T235 841Q235 859 247 870T277 882Q295 882 307 871T320 841Q320 823 308 812T277 800Q259 800 247 811ZM425 800T413 811T400 841Q400 859 412 870T443 882Q461 882 473 871T485 841Q485 823 473 812T443
800Q425 800 413 811Z" />
<glyph unicode="&#xc5;" glyph-name="Aring" horiz-adv-x="720" d="M688 27T688 21Q688 10 679 3T658 -5Q650 -5 643 0T631 14L555 188H167L90 14Q81 -5 62 -5Q50 -5 42 2T33 22Q33 29 35 33L323 682Q295 693 278 717T261 771Q261 812 290 840T360 868Q401 868
430 840T459 771Q459 741 442 717T397 682L685 33Q688 27 688 21ZM339 823T325 808T311 771Q311 750 325 735T360 720Q381 720 395 735T410 771Q410 793 396 808T360 823Q339 823 325 808ZM190 242H531L361 629L190 242Z" />
<glyph unicode="&#xc6;" glyph-name="AE" horiz-adv-x="989" d="M927 54T934 47T942 27Q942 14 935 7T914 0H603Q577 0 570 31L537 188H178L73 14Q61 -5 40 -5Q29 -5 22 1T14 17Q14 26 19 33L420 689Q431 705 456 705H914Q927 705 934 698T942 678Q942 665 935
658T914 651H495L551 385H894Q907 385 914 378T922 358Q922 345 915 338T894 331H563L622 54H914Q927 54 934 47ZM211 242H525L443 628L211 242Z" />
<glyph unicode="&#xc7;" glyph-name="Ccedilla" horiz-adv-x="677" d="M615 135T621 127T628 108Q628 92 614 79Q575 39 518 17T398 -8L394 -45Q410 -41 421 -41Q451 -41 473 -58T495 -110Q495 -146 465 -168T382 -191Q343 -191 314 -180Q298 -173 298 -158Q298
-150 304 -145T319 -139Q325 -139 328 -140Q356 -148 384 -148Q414 -148 429 -138T444 -110Q444 -96 436 -89T412 -81Q400 -81 383 -86T360 -91Q353 -91 347 -86T341 -72L348 -6Q260 1 196 46T98 170T64 353Q64 464 102 545T213 669T384 713Q451 713 511 691T614
626Q628 613 628 597Q628 586 622 578T607 570Q597 570 584 580Q530 624 486 641T383 658Q262 658 196 578T129 353Q129 207 195 127T383 47Q442 47 486 64T584 125Q599 135 607 135Q615 135 621 127Z" />
<glyph unicode="&#xc8;" glyph-name="Egrave" horiz-adv-x="579" d="M110 0T101 9T91 31V674Q91 687 100 696T124 705H504Q517 705 524 698T532 678Q532 666 525 659T504 652H152V385H484Q497 385 504 378T512 358Q512 345 505 338T484 331H152V53H504Q517 53
524 47T532 27Q532 14 525 7T504 0H124Q110 0 101 9ZM189 859Q170 874 170 891Q170 903 179 911T201 920Q217 920 231 905L334 790Q340 784 340 777Q340 770 335 765T322 760Q315 760 310 764L189 859Z" />
<glyph unicode="&#xc9;" glyph-name="Eacute" horiz-adv-x="579" d="M110 0T101 9T91 31V674Q91 687 100 696T124 705H504Q517 705 524 698T532 678Q532 666 525 659T504 652H152V385H484Q497 385 504 378T512 358Q512 345 505 338T484 331H152V53H504Q517 53
524 47T532 27Q532 14 525 7T504 0H124Q110 0 101 9ZM329 760T322 760Q315 760 310 765T304 777Q304 784 310 790L413 905Q427 920 443 920Q456 920 465 912T474 890Q474 874 455 859L334 764Q329 760 322 760Z" />
<glyph unicode="&#xca;" glyph-name="Ecircumflex" horiz-adv-x="579" d="M110 0T101 9T91 31V674Q91 687 100 696T124 705H504Q517 705 524 698T532 678Q532 666 525 659T504 652H152V385H484Q497 385 504 378T512 358Q512 345 505 338T484 331H152V53H504Q517
53 524 47T532 27Q532 14 525 7T504 0H124Q110 0 101 9ZM225 759T214 759Q204 759 197 766T189 785Q189 796 198 806L290 905Q304 920 322 920Q339 920 354 905L446 806Q455 797 455 785Q455 775 448 768T430 760Q418 760 410 769L322 871L234 769Q225 759 214
759Z" />
<glyph unicode="&#xcb;" glyph-name="Edieresis" horiz-adv-x="579" d="M110 0T101 9T91 31V674Q91 687 100 696T124 705H504Q517 705 524 698T532 678Q532 666 525 659T504 652H152V385H484Q497 385 504 378T512 358Q512 345 505 338T484 331H152V53H504Q517
53 524 47T532 27Q532 14 525 7T504 0H124Q110 0 101 9ZM221 800T209 811T197 841Q197 859 209 870T239 882Q257 882 269 871T282 841Q282 823 270 812T239 800Q221 800 209 811ZM387 800T375 811T362 841Q362 859 374 870T405 882Q423 882 435 871T447 841Q447
823 435 812T405 800Q387 800 375 811Z" />
<glyph unicode="&#xcc;" glyph-name="Igrave" horiz-adv-x="244" d="M108 -5T100 4T91 27V678Q91 692 99 701T122 710Q136 710 144 701T153 678V27Q153 13 145 4T122 -5Q108 -5 100 4ZM-11 859Q-30 874 -30 891Q-30 903 -21 911T1 920Q17 920 31 905L134 790Q140
784 140 777Q140 770 135 765T122 760Q115 760 110 764L-11 859Z" />
<glyph unicode="&#xcd;" glyph-name="Iacute" horiz-adv-x="244" d="M108 -5T100 4T91 27V678Q91 692 99 701T122 710Q136 710 144 701T153 678V27Q153 13 145 4T122 -5Q108 -5 100 4ZM129 760T122 760Q115 760 110 765T104 777Q104 784 110 790L213 905Q227 920
243 920Q256 920 265 912T274 890Q274 874 255 859L134 764Q129 760 122 760Z" />
<glyph unicode="&#xce;" glyph-name="Icircumflex" horiz-adv-x="244" d="M108 -5T100 4T91 27V678Q91 692 99 701T122 710Q136 710 144 701T153 678V27Q153 13 145 4T122 -5Q108 -5 100 4ZM25 759T14 759Q4 759 -3 766T-11 785Q-11 796 -2 806L90 905Q104 920
122 920Q139 920 154 905L246 806Q255 797 255 785Q255 775 248 768T230 760Q218 760 210 769L122 871L34 769Q25 759 14 759Z" />
<glyph unicode="&#xcf;" glyph-name="Idieresis" horiz-adv-x="244" d="M108 -5T100 4T91 27V678Q91 692 99 701T122 710Q136 710 144 701T153 678V27Q153 13 145 4T122 -5Q108 -5 100 4ZM21 800T9 811T-3 841Q-3 859 9 870T39 882Q57 882 69 871T82 841Q82 823
70 812T39 800Q21 800 9 811ZM187 800T175 811T162 841Q162 859 174 870T205 882Q223 882 235 871T247 841Q247 823 235 812T205 800Q187 800 175 811Z" />
<glyph unicode="&#xd0;" glyph-name="Eth" horiz-adv-x="740" d="M494 705T585 614T676 353Q676 183 585 92T327 0H133Q119 0 110 9T100 31V332H28Q16 332 8 339T0 358Q0 370 7 376T28 383H100V674Q100 687 109 696T133 705H327Q494 705 585 614ZM612 54T612 353Q612
651 324 651H161V383H335Q361 383 361 358Q361 345 354 339T335 332H161V54H324Q612 54 612 353Z" />
<glyph unicode="&#xd1;" glyph-name="Ntilde" horiz-adv-x="735" d="M629 710T636 702T644 678V27Q644 13 636 4T614 -5Q599 -5 587 10L149 601V27Q149 13 141 4T120 -5Q105 -5 98 3T91 27V678Q91 692 99 701T123 710Q139 710 149 695L586 105V678Q586 692 594
701T615 710Q629 710 636 702ZM420 793T402 799T357 818Q354 820 341 826T317 835T299 838Q281 838 271 831T252 810Q248 804 243 800T233 795Q225 795 220 801T214 816Q214 832 224 849T254 878T299 890Q316 890 334 884T379 865Q382 863 395 857T419 848T437
845Q456 845 466 853T484 874Q488 880 493 884T503 889Q511 889 516 883T522 868Q522 852 512 835T482 805T437 793Q420 793 402 799Z" />
<glyph unicode="&#xd2;" glyph-name="Ograve" horiz-adv-x="757" d="M282 -8T211 35T102 160T64 352Q64 463 102 544T210 669T378 713Q475 713 546 670T655 545T693 353Q693 242 655 161T546 36T378 -8Q282 -8 211 35ZM497 47T563 127T629 353Q629 499 564 578T378
658Q259 658 194 578T128 353Q128 208 193 128T378 47Q497 47 563 127ZM245 859Q226 874 226 891Q226 903 235 911T257 920Q273 920 287 905L390 790Q396 784 396 777Q396 770 391 765T378 760Q371 760 366 764L245 859Z" />
<glyph unicode="&#xd3;" glyph-name="Oacute" horiz-adv-x="757" d="M282 -8T211 35T102 160T64 352Q64 463 102 544T210 669T378 713Q475 713 546 670T655 545T693 353Q693 242 655 161T546 36T378 -8Q282 -8 211 35ZM497 47T563 127T629 353Q629 499 564 578T378
658Q259 658 194 578T128 353Q128 208 193 128T378 47Q497 47 563 127ZM385 760T378 760Q371 760 366 765T360 777Q360 784 366 790L469 905Q483 920 499 920Q512 920 521 912T530 890Q530 874 511 859L390 764Q385 760 378 760Z" />
<glyph unicode="&#xd4;" glyph-name="Ocircumflex" horiz-adv-x="757" d="M282 -8T211 35T102 160T64 352Q64 463 102 544T210 669T378 713Q475 713 546 670T655 545T693 353Q693 242 655 161T546 36T378 -8Q282 -8 211 35ZM497 47T563 127T629 353Q629 499 564
578T378 658Q259 658 194 578T128 353Q128 208 193 128T378 47Q497 47 563 127ZM281 759T270 759Q260 759 253 766T245 785Q245 796 254 806L346 905Q360 920 378 920Q395 920 410 905L502 806Q511 797 511 785Q511 775 504 768T486 760Q474 760 466 769L378 871L290
769Q281 759 270 759Z" />
<glyph unicode="&#xd5;" glyph-name="Otilde" horiz-adv-x="757" d="M282 -8T211 35T102 160T64 352Q64 463 102 544T210 669T378 713Q475 713 546 670T655 545T693 353Q693 242 655 161T546 36T378 -8Q282 -8 211 35ZM497 47T563 127T629 353Q629 499 564 578T378
658Q259 658 194 578T128 353Q128 208 193 128T378 47Q497 47 563 127ZM430 793T412 799T367 818Q364 820 351 826T327 835T309 838Q291 838 281 831T262 810Q258 804 253 800T243 795Q235 795 230 801T224 816Q224 832 234 849T264 878T309 890Q326 890 344 884T389
865Q392 863 405 857T429 848T447 845Q466 845 476 853T494 874Q498 880 503 884T513 889Q521 889 526 883T532 868Q532 852 522 835T492 805T447 793Q430 793 412 799Z" />
<glyph unicode="&#xd6;" glyph-name="Odieresis" horiz-adv-x="757" d="M282 -8T211 35T102 160T64 352Q64 463 102 544T210 669T378 713Q475 713 546 670T655 545T693 353Q693 242 655 161T546 36T378 -8Q282 -8 211 35ZM497 47T563 127T629 353Q629 499 564
578T378 658Q259 658 194 578T128 353Q128 208 193 128T378 47Q497 47 563 127ZM277 800T265 811T253 841Q253 859 265 870T295 882Q313 882 325 871T338 841Q338 823 326 812T295 800Q277 800 265 811ZM443 800T431 811T418 841Q418 859 430 870T461 882Q479 882
491 871T503 841Q503 823 491 812T461 800Q443 800 431 811Z" />
<glyph unicode="&#xd7;" glyph-name="multiply" horiz-adv-x="600" d="M515 105Q522 98 522 86Q522 74 514 66Q508 60 499 60Q488 60 479 70L300 249L121 70Q114 61 101 61Q91 61 83 69Q77 75 77 85Q77 95 85 105L264 284L85 463Q77 473 77 483Q77 494 84 501Q91
508 101 508Q114 508 121 499L300 320L479 499Q487 507 498 507Q510 507 517 499Q523 493 523 483Q523 473 515 463L336 284L515 105Z" />
<glyph unicode="&#xd8;" glyph-name="Oslash" horiz-adv-x="757" d="M634 599T663 525T693 353Q693 242 655 161T546 36T378 -8Q288 -8 220 30L191 -20Q183 -35 168 -35Q158 -35 150 -28T142 -10Q142 -4 147 6L178 60Q123 106 94 180T64 352Q64 463 102 544T210
669T378 713Q469 713 537 675L567 726Q575 740 589 740Q600 740 608 733T616 715Q616 708 611 700L579 646Q634 599 663 525ZM128 191T208 111L509 626Q453 658 378 658Q259 658 194 578T128 353Q128 191 208 111ZM497 47T563 127T629 353Q629 516 549 594L249
79Q304 47 378 47Q497 47 563 127Z" />
<glyph unicode="&#xd9;" glyph-name="Ugrave" horiz-adv-x="720" d="M225 -8T156 63T86 272V678Q86 693 94 701T117 710Q131 710 139 702T148 678V265Q148 47 360 47Q465 47 518 102T572 265V678Q572 692 580 701T603 710Q617 710 625 702T633 678V272Q633 134
564 63T360 -8Q225 -8 156 63ZM227 859Q208 874 208 891Q208 903 217 911T239 920Q255 920 269 905L372 790Q378 784 378 777Q378 770 373 765T360 760Q353 760 348 764L227 859Z" />
<glyph unicode="&#xda;" glyph-name="Uacute" horiz-adv-x="720" d="M225 -8T156 63T86 272V678Q86 693 94 701T117 710Q131 710 139 702T148 678V265Q148 47 360 47Q465 47 518 102T572 265V678Q572 692 580 701T603 710Q617 710 625 702T633 678V272Q633 134
564 63T360 -8Q225 -8 156 63ZM367 760T360 760Q353 760 348 765T342 777Q342 784 348 790L451 905Q465 920 481 920Q494 920 503 912T512 890Q512 874 493 859L372 764Q367 760 360 760Z" />
<glyph unicode="&#xdb;" glyph-name="Ucircumflex" horiz-adv-x="720" d="M225 -8T156 63T86 272V678Q86 693 94 701T117 710Q131 710 139 702T148 678V265Q148 47 360 47Q465 47 518 102T572 265V678Q572 692 580 701T603 710Q617 710 625 702T633 678V272Q633
134 564 63T360 -8Q225 -8 156 63ZM263 759T252 759Q242 759 235 766T227 785Q227 796 236 806L328 905Q342 920 360 920Q377 920 392 905L484 806Q493 797 493 785Q493 775 486 768T468 760Q456 760 448 769L360 871L272 769Q263 759 252 759Z" />
<glyph unicode="&#xdc;" glyph-name="Udieresis" horiz-adv-x="720" d="M225 -8T156 63T86 272V678Q86 693 94 701T117 710Q131 710 139 702T148 678V265Q148 47 360 47Q465 47 518 102T572 265V678Q572 692 580 701T603 710Q617 710 625 702T633 678V272Q633
134 564 63T360 -8Q225 -8 156 63ZM259 800T247 811T235 841Q235 859 247 870T277 882Q295 882 307 871T320 841Q320 823 308 812T277 800Q259 800 247 811ZM425 800T413 811T400 841Q400 859 412 870T443 882Q461 882 473 871T485 841Q485 823 473 812T443 800Q425
800 413 811Z" />
<glyph unicode="&#xdd;" glyph-name="Yacute" horiz-adv-x="591" d="M542 709T555 709Q566 709 574 701T582 681Q582 670 575 662L325 340V27Q325 13 317 4T295 -5Q281 -5 273 4T264 27V342L15 662Q8 670 8 681Q8 692 16 700T35 709Q48 709 57 697L295 389L533
697Q542 709 555 709ZM302 760T295 760Q288 760 283 765T277 777Q277 784 283 790L386 905Q400 920 416 920Q429 920 438 912T447 890Q447 874 428 859L307 764Q302 760 295 760Z" />
<glyph unicode="&#xde;" glyph-name="Thorn" horiz-adv-x="638" d="M474 546T531 498T589 360Q589 270 531 221T367 171H152V27Q152 12 144 4T122 -5Q108 -5 100 3T91 27V678Q91 693 99 701T122 710Q136 710 144 702T152 678V546H367Q474 546 531 498ZM446 224T486
257T527 360Q527 428 487 460T363 493H152V224H363Q446 224 486 257Z" />
<glyph unicode="&#xdf;" glyph-name="germandbls" horiz-adv-x="598" d="M352 -7T313 4T244 36Q225 48 218 58T211 80Q211 90 217 97T232 104Q238 104 246 100T264 88Q291 69 319 58T388 46Q442 46 472 68T503 129Q503 155 488 172T451 200T388 225Q343 240 315
254T266 294T246 360Q246 397 265 422T322 480Q356 509 373 531T390 583Q390 618 365 637T293 657Q220 657 181 614T141 491V26Q141 12 133 4T111 -5Q97 -5 89 3T80 26V486Q80 591 136 650T292 709Q365 709 407 676T449 584Q449 542 428 513T367 450Q336 423 322
406T308 366Q308 341 322 325T359 298T419 273Q466 256 495 241T544 199T565 130Q565 69 516 31T388 -7Q352 -7 313 4Z" />
<glyph unicode="&#xe0;" glyph-name="agrave" horiz-adv-x="526" d="M360 497T403 451T447 312V27Q447 13 439 5T417 -4Q403 -4 395 4T387 27V87Q366 42 326 18T234 -7Q187 -7 148 12T87 65T64 140Q64 194 92 224T185 267T366 280H387V317Q387 383 360 413T275
444Q201 444 134 405Q131 403 119 395T97 386Q87 386 81 393T74 412Q74 434 109 455Q144 475 187 486T272 497Q360 497 403 451ZM304 46T345 90T387 202V235H368Q272 235 221 227T149 200T128 143Q128 101 160 74T239 46Q304 46 345 90ZM111 693Q94 709 94 726Q94
739 103 747T125 756Q144 756 160 736L285 575Q290 568 290 562Q290 555 285 550T272 545Q264 545 258 551L111 693Z" />
<glyph unicode="&#xe1;" glyph-name="aacute" horiz-adv-x="526" d="M360 497T403 451T447 312V27Q447 13 439 5T417 -4Q403 -4 395 4T387 27V87Q366 42 326 18T234 -7Q187 -7 148 12T87 65T64 140Q64 194 92 224T185 267T366 280H387V317Q387 383 360 413T275
444Q201 444 134 405Q131 403 119 395T97 386Q87 386 81 393T74 412Q74 434 109 455Q144 475 187 486T272 497Q360 497 403 451ZM304 46T345 90T387 202V235H368Q272 235 221 227T149 200T128 143Q128 101 160 74T239 46Q304 46 345 90ZM280 545T272 545Q265 545
260 550T254 562Q254 568 259 575L384 736Q399 756 419 756Q432 756 441 748T450 726Q450 709 433 693L286 551Q280 545 272 545Z" />
<glyph unicode="&#xe2;" glyph-name="acircumflex" horiz-adv-x="526" d="M360 497T403 451T447 312V27Q447 13 439 5T417 -4Q403 -4 395 4T387 27V87Q366 42 326 18T234 -7Q187 -7 148 12T87 65T64 140Q64 194 92 224T185 267T366 280H387V317Q387 383 360 413T275
444Q201 444 134 405Q131 403 119 395T97 386Q87 386 81 393T74 412Q74 434 109 455Q144 475 187 486T272 497Q360 497 403 451ZM304 46T345 90T387 202V235H368Q272 235 221 227T149 200T128 143Q128 101 160 74T239 46Q304 46 345 90ZM179 545T165 545Q154 545
147 552T139 571Q139 580 145 589L239 734Q247 744 254 749T272 755Q283 755 290 750T305 734L399 589Q405 580 405 571Q405 560 398 553T379 545Q365 545 356 560L272 699L188 560Q179 545 165 545Z" />
<glyph unicode="&#xe3;" glyph-name="atilde" horiz-adv-x="526" d="M360 497T403 451T447 312V27Q447 13 439 5T417 -4Q403 -4 395 4T387 27V87Q366 42 326 18T234 -7Q187 -7 148 12T87 65T64 140Q64 194 92 224T185 267T366 280H387V317Q387 383 360 413T275
444Q201 444 134 405Q131 403 119 395T97 386Q87 386 81 393T74 412Q74 434 109 455Q144 475 187 486T272 497Q360 497 403 451ZM304 46T345 90T387 202V235H368Q272 235 221 227T149 200T128 143Q128 101 160 74T239 46Q304 46 345 90ZM323 593T305 602T262 629Q237
645 226 651T203 657Q185 657 175 648T157 621Q152 610 148 605T137 600Q129 600 124 606T118 621Q118 638 128 659T158 696T203 711Q221 711 238 702T282 675Q304 660 317 653T341 646Q359 646 369 656T387 683Q393 694 397 699T407 704Q415 704 420 698T426 683Q426
666 416 645T386 608T341 593Q323 593 305 602Z" />
<glyph unicode="&#xe4;" glyph-name="adieresis" horiz-adv-x="526" d="M360 497T403 451T447 312V27Q447 13 439 5T417 -4Q403 -4 395 4T387 27V87Q366 42 326 18T234 -7Q187 -7 148 12T87 65T64 140Q64 194 92 224T185 267T366 280H387V317Q387 383 360 413T275
444Q201 444 134 405Q131 403 119 395T97 386Q87 386 81 393T74 412Q74 434 109 455Q144 475 187 486T272 497Q360 497 403 451ZM304 46T345 90T387 202V235H368Q272 235 221 227T149 200T128 143Q128 101 160 74T239 46Q304 46 345 90ZM171 610T159 621T147 651Q147
670 159 681T189 693Q207 693 219 681T232 651Q232 633 220 622T189 610Q171 610 159 621ZM337 610T325 621T312 651Q312 669 324 681T355 693Q373 693 385 681T397 651Q397 633 385 622T355 610Q337 610 325 621Z" />
<glyph unicode="&#xe5;" glyph-name="aring" horiz-adv-x="526" d="M360 497T403 451T447 312V27Q447 13 439 5T417 -4Q403 -4 395 4T387 27V87Q366 42 326 18T234 -7Q187 -7 148 12T87 65T64 140Q64 194 92 224T185 267T366 280H387V317Q387 383 360 413T275
444Q201 444 134 405Q131 403 119 395T97 386Q87 386 81 393T74 412Q74 434 109 455Q144 475 187 486T272 497Q360 497 403 451ZM304 46T345 90T387 202V235H368Q272 235 221 227T149 200T128 143Q128 101 160 74T239 46Q304 46 345 90ZM231 555T202 583T173 651Q173
692 202 720T272 748Q313 748 342 720T371 651Q371 611 342 583T272 555Q231 555 202 583ZM293 600T307 615T322 651Q322 673 308 688T272 703Q250 703 236 688T222 651Q222 630 236 615T272 600Q293 600 307 615Z" />
<glyph unicode="&#xe6;" glyph-name="ae" horiz-adv-x="857" d="M794 104T800 97T807 79Q807 56 772 36Q738 15 700 4T624 -7Q549 -7 497 27T419 125Q401 63 354 28T240 -7Q190 -7 150 12T87 64T64 140Q64 194 92 224T186 267T369 280H391V314Q391 382 364 413T278
444Q226 444 193 432T125 400Q116 394 108 390T95 386Q86 386 80 393T74 412Q74 435 109 455Q183 497 274 497Q402 497 436 401Q465 447 510 472T612 497Q703 497 757 436T811 270Q811 252 803 244T777 235H452Q455 143 499 95T624 47Q665 47 694 58T754 89Q776
104 785 104Q794 104 800 97ZM545 447T504 403T454 280H755Q753 360 716 403T612 447Q545 447 504 403ZM308 46T349 91T391 206V235H372Q274 235 223 227T150 200T128 143Q128 100 161 73T244 46Q308 46 349 91Z" />
<glyph unicode="&#xe7;" glyph-name="ccedilla" horiz-adv-x="475" d="M438 104T444 97T450 80Q450 68 443 59T416 36Q392 18 358 7T289 -7L285 -45Q301 -41 312 -41Q342 -41 364 -58T386 -110Q386 -146 356 -168T273 -191Q234 -191 205 -180Q189 -173 189 -158Q189
-150 195 -145T210 -139Q216 -139 219 -140Q247 -148 275 -148Q305 -148 320 -138T335 -110Q335 -96 327 -89T303 -81Q291 -81 274 -86T251 -91Q244 -91 238 -86T232 -72L239 -5Q152 7 101 74T49 243Q49 318 77 375T157 465T276 497Q314 497 350 487T414 457Q432
444 439 434T447 411Q447 400 441 393T426 386Q416 386 394 403Q368 422 342 433T279 444Q201 444 157 391T113 243Q113 150 156 99T278 47Q316 47 341 58T397 88Q406 94 414 99T428 104Q438 104 444 97Z" />
<glyph unicode="&#xe8;" glyph-name="egrave" horiz-adv-x="526" d="M461 104T467 97T474 79Q474 57 440 36Q368 -7 288 -7Q177 -7 113 60T49 244Q49 319 77 376T157 465T276 497Q370 497 424 437T479 270Q479 252 471 244T445 235H112Q115 143 160 95T287 47Q330
47 359 58T421 89Q443 104 452 104Q461 104 467 97ZM206 447T164 403T114 280H423Q421 360 383 403T276 447Q206 447 164 403ZM115 693Q98 709 98 726Q98 739 107 747T129 756Q148 756 164 736L289 575Q294 568 294 562Q294 555 289 550T276 545Q268 545 262 551L115
693Z" />
<glyph unicode="&#xe9;" glyph-name="eacute" horiz-adv-x="526" d="M461 104T467 97T474 79Q474 57 440 36Q368 -7 288 -7Q177 -7 113 60T49 244Q49 319 77 376T157 465T276 497Q370 497 424 437T479 270Q479 252 471 244T445 235H112Q115 143 160 95T287 47Q330
47 359 58T421 89Q443 104 452 104Q461 104 467 97ZM206 447T164 403T114 280H423Q421 360 383 403T276 447Q206 447 164 403ZM284 545T276 545Q269 545 264 550T258 562Q258 568 263 575L388 736Q403 756 423 756Q436 756 445 748T454 726Q454 709 437 693L290
551Q284 545 276 545Z" />
<glyph unicode="&#xea;" glyph-name="ecircumflex" horiz-adv-x="526" d="M461 104T467 97T474 79Q474 57 440 36Q368 -7 288 -7Q177 -7 113 60T49 244Q49 319 77 376T157 465T276 497Q370 497 424 437T479 270Q479 252 471 244T445 235H112Q115 143 160 95T287
47Q330 47 359 58T421 89Q443 104 452 104Q461 104 467 97ZM206 447T164 403T114 280H423Q421 360 383 403T276 447Q206 447 164 403ZM183 545T169 545Q158 545 151 552T143 571Q143 580 149 589L243 734Q251 744 258 749T276 755Q287 755 294 750T309 734L403
589Q409 580 409 571Q409 560 402 553T383 545Q369 545 360 560L276 699L192 560Q183 545 169 545Z" />
<glyph unicode="&#xeb;" glyph-name="edieresis" horiz-adv-x="526" d="M461 104T467 97T474 79Q474 57 440 36Q368 -7 288 -7Q177 -7 113 60T49 244Q49 319 77 376T157 465T276 497Q370 497 424 437T479 270Q479 252 471 244T445 235H112Q115 143 160 95T287
47Q330 47 359 58T421 89Q443 104 452 104Q461 104 467 97ZM206 447T164 403T114 280H423Q421 360 383 403T276 447Q206 447 164 403ZM175 610T163 621T151 651Q151 670 163 681T193 693Q211 693 223 681T236 651Q236 633 224 622T193 610Q175 610 163 621ZM341
610T329 621T316 651Q316 669 328 681T359 693Q377 693 389 681T401 651Q401 633 389 622T359 610Q341 610 329 621Z" />
<glyph unicode="&#xec;" glyph-name="igrave" horiz-adv-x="222" d="M97 -5T89 3T80 26V464Q80 479 88 487T111 495Q125 495 133 487T141 464V26Q141 11 133 3T111 -5Q97 -5 89 3ZM-50 693Q-67 709 -67 726Q-67 739 -58 747T-36 756Q-17 756 -1 736L124 575Q129
568 129 562Q129 555 124 550T111 545Q103 545 97 551L-50 693Z" />
<glyph unicode="&#xed;" glyph-name="iacute" horiz-adv-x="222" d="M97 -5T89 3T80 26V464Q80 479 88 487T111 495Q125 495 133 487T141 464V26Q141 11 133 3T111 -5Q97 -5 89 3ZM119 545T111 545Q104 545 99 550T93 562Q93 568 98 575L223 736Q238 756 258 756Q271
756 280 748T289 726Q289 709 272 693L125 551Q119 545 111 545Z" />
<glyph unicode="&#xee;" glyph-name="icircumflex" horiz-adv-x="222" d="M97 -5T89 3T80 26V464Q80 479 88 487T111 495Q125 495 133 487T141 464V26Q141 11 133 3T111 -5Q97 -5 89 3ZM18 545T4 545Q-7 545 -14 552T-22 571Q-22 580 -16 589L78 734Q86 744 93
749T111 755Q122 755 129 750T144 734L238 589Q244 580 244 571Q244 560 237 553T218 545Q204 545 195 560L111 699L27 560Q18 545 4 545Z" />
<glyph unicode="&#xef;" glyph-name="idieresis" horiz-adv-x="222" d="M97 -5T89 3T80 26V464Q80 479 88 487T111 495Q125 495 133 487T141 464V26Q141 11 133 3T111 -5Q97 -5 89 3ZM10 610T-2 621T-14 651Q-14 670 -2 681T28 693Q46 693 58 681T71 651Q71 633
59 622T28 610Q10 610 -2 621ZM176 610T164 621T151 651Q151 669 163 681T194 693Q212 693 224 681T236 651Q236 633 224 622T194 610Q176 610 164 621Z" />
<glyph unicode="&#xf0;" glyph-name="eth" horiz-adv-x="549" d="M500 464T500 280Q500 139 442 66T271 -7Q205 -7 155 21T77 102T49 224Q49 293 76 345T154 426T271 455Q379 455 431 380Q408 486 331 562L198 510Q192 508 189 508Q179 508 173 515T166 533Q166
539 170 545T182 554L292 596Q249 629 191 654Q178 659 172 667T165 684Q165 694 173 701T194 708Q204 708 215 704Q296 670 353 620L464 663Q472 665 474 665Q483 665 489 659T496 643Q496 628 480 621L389 585Q500 464 500 280ZM347 47T390 94T433 225Q433 308
392 354T273 401Q197 401 155 355T113 224Q113 139 154 93T272 47Q347 47 390 94Z" />
<glyph unicode="&#xf1;" glyph-name="ntilde" horiz-adv-x="561" d="M482 497T482 309V26Q482 12 474 4T452 -5Q438 -5 430 3T421 26V305Q421 377 392 410T300 443Q228 443 185 399T141 281V26Q141 12 133 4T111 -5Q97 -5 89 3T80 26V464Q80 478 88 486T111 495Q124
495 132 487T140 465V402Q163 448 206 472T307 497Q482 497 482 309ZM331 593T313 602T270 629Q245 645 234 651T211 657Q193 657 183 648T165 621Q160 610 156 605T145 600Q137 600 132 606T126 621Q126 638 136 659T166 696T211 711Q229 711 246 702T290 675Q312
660 325 653T349 646Q367 646 377 656T395 683Q401 694 405 699T415 704Q423 704 428 698T434 683Q434 666 424 645T394 608T349 593Q331 593 313 602Z" />
<glyph unicode="&#xf2;" glyph-name="ograve" horiz-adv-x="545" d="M206 -7T156 24T77 112T49 245Q49 321 77 378T155 466T273 497Q339 497 390 466T468 378T496 245Q496 169 469 112T390 24T273 -7Q206 -7 156 24ZM349 47T391 98T433 245Q433 339 391 391T273
444Q197 444 155 392T113 245Q113 149 154 98T272 47Q349 47 391 98ZM112 693Q95 709 95 726Q95 739 104 747T126 756Q145 756 161 736L286 575Q291 568 291 562Q291 555 286 550T273 545Q265 545 259 551L112 693Z" />
<glyph unicode="&#xf3;" glyph-name="oacute" horiz-adv-x="545" d="M206 -7T156 24T77 112T49 245Q49 321 77 378T155 466T273 497Q339 497 390 466T468 378T496 245Q496 169 469 112T390 24T273 -7Q206 -7 156 24ZM349 47T391 98T433 245Q433 339 391 391T273
444Q197 444 155 392T113 245Q113 149 154 98T272 47Q349 47 391 98ZM281 545T273 545Q266 545 261 550T255 562Q255 568 260 575L385 736Q400 756 420 756Q433 756 442 748T451 726Q451 709 434 693L287 551Q281 545 273 545Z" />
<glyph unicode="&#xf4;" glyph-name="ocircumflex" horiz-adv-x="545" d="M206 -7T156 24T77 112T49 245Q49 321 77 378T155 466T273 497Q339 497 390 466T468 378T496 245Q496 169 469 112T390 24T273 -7Q206 -7 156 24ZM349 47T391 98T433 245Q433 339 391 391T273
444Q197 444 155 392T113 245Q113 149 154 98T272 47Q349 47 391 98ZM180 545T166 545Q155 545 148 552T140 571Q140 580 146 589L240 734Q248 744 255 749T273 755Q284 755 291 750T306 734L400 589Q406 580 406 571Q406 560 399 553T380 545Q366 545 357 560L273
699L189 560Q180 545 166 545Z" />
<glyph unicode="&#xf5;" glyph-name="otilde" horiz-adv-x="545" d="M206 -7T156 24T77 112T49 245Q49 321 77 378T155 466T273 497Q339 497 390 466T468 378T496 245Q496 169 469 112T390 24T273 -7Q206 -7 156 24ZM349 47T391 98T433 245Q433 339 391 391T273
444Q197 444 155 392T113 245Q113 149 154 98T272 47Q349 47 391 98ZM324 593T306 602T263 629Q238 645 227 651T204 657Q186 657 176 648T158 621Q153 610 149 605T138 600Q130 600 125 606T119 621Q119 638 129 659T159 696T204 711Q222 711 239 702T283 675Q305
660 318 653T342 646Q360 646 370 656T388 683Q394 694 398 699T408 704Q416 704 421 698T427 683Q427 666 417 645T387 608T342 593Q324 593 306 602Z" />
<glyph unicode="&#xf6;" glyph-name="odieresis" horiz-adv-x="545" d="M206 -7T156 24T77 112T49 245Q49 321 77 378T155 466T273 497Q339 497 390 466T468 378T496 245Q496 169 469 112T390 24T273 -7Q206 -7 156 24ZM349 47T391 98T433 245Q433 339 391 391T273
444Q197 444 155 392T113 245Q113 149 154 98T272 47Q349 47 391 98ZM172 610T160 621T148 651Q148 670 160 681T190 693Q208 693 220 681T233 651Q233 633 221 622T190 610Q172 610 160 621ZM338 610T326 621T313 651Q313 669 325 681T356 693Q374 693 386 681T398
651Q398 633 386 622T356 610Q338 610 326 621Z" />
<glyph unicode="&#xf7;" glyph-name="divide" horiz-adv-x="600" d="M280 441T268 453T255 487Q255 507 267 520T300 533Q319 533 331 520T344 487Q344 466 332 454T300 441Q280 441 268 453ZM78 258T70 266T62 285Q62 295 70 302T89 309H523Q534 309 542 301T550
282Q550 272 542 265T523 258H89Q78 258 70 266ZM280 36T268 48T255 82Q255 102 267 115T300 128Q319 128 331 115T344 82Q344 61 332 49T300 36Q280 36 268 48Z" />
<glyph unicode="&#xf8;" glyph-name="oslash" horiz-adv-x="545" d="M455 411T475 360T496 245Q496 169 469 112T390 24T273 -7Q215 -7 168 17L146 -21Q139 -34 125 -34Q115 -34 107 -27T99 -10Q99 -4 103 3L127 45Q90 79 70 130T49 245Q49 321 77 378T155 466T273
497Q332 497 377 473L400 512Q407 524 421 524Q431 524 439 518T447 501Q447 493 443 488L418 445Q455 411 475 360ZM112 145T157 95L350 426Q317 444 273 444Q197 444 155 392T112 245Q112 145 157 95ZM349 47T391 98T433 245Q433 342 389 395L196 64Q228 47 272
47Q349 47 391 98Z" />
<glyph unicode="&#xf9;" glyph-name="ugrave" horiz-adv-x="553" d="M456 495T464 487T473 464V26Q473 12 465 4T442 -5Q429 -5 421 3T413 26V87Q390 41 348 17T251 -7Q165 -7 122 40T78 181V464Q78 478 86 486T109 495Q123 495 131 487T139 464V185Q139 114 167
81T257 47Q327 47 369 91T412 210V464Q412 478 420 486T442 495Q456 495 464 487ZM115 693Q98 709 98 726Q98 739 107 747T129 756Q148 756 164 736L289 575Q294 568 294 562Q294 555 289 550T276 545Q268 545 262 551L115 693Z" />
<glyph unicode="&#xfa;" glyph-name="uacute" horiz-adv-x="553" d="M456 495T464 487T473 464V26Q473 12 465 4T442 -5Q429 -5 421 3T413 26V87Q390 41 348 17T251 -7Q165 -7 122 40T78 181V464Q78 478 86 486T109 495Q123 495 131 487T139 464V185Q139 114 167
81T257 47Q327 47 369 91T412 210V464Q412 478 420 486T442 495Q456 495 464 487ZM284 545T276 545Q269 545 264 550T258 562Q258 568 263 575L388 736Q403 756 423 756Q436 756 445 748T454 726Q454 709 437 693L290 551Q284 545 276 545Z" />
<glyph unicode="&#xfb;" glyph-name="ucircumflex" horiz-adv-x="553" d="M456 495T464 487T473 464V26Q473 12 465 4T442 -5Q429 -5 421 3T413 26V87Q390 41 348 17T251 -7Q165 -7 122 40T78 181V464Q78 478 86 486T109 495Q123 495 131 487T139 464V185Q139
114 167 81T257 47Q327 47 369 91T412 210V464Q412 478 420 486T442 495Q456 495 464 487ZM183 545T169 545Q158 545 151 552T143 571Q143 580 149 589L243 734Q251 744 258 749T276 755Q287 755 294 750T309 734L403 589Q409 580 409 571Q409 560 402 553T383
545Q369 545 360 560L276 699L192 560Q183 545 169 545Z" />
<glyph unicode="&#xfc;" glyph-name="udieresis" horiz-adv-x="553" d="M456 495T464 487T473 464V26Q473 12 465 4T442 -5Q429 -5 421 3T413 26V87Q390 41 348 17T251 -7Q165 -7 122 40T78 181V464Q78 478 86 486T109 495Q123 495 131 487T139 464V185Q139 114
167 81T257 47Q327 47 369 91T412 210V464Q412 478 420 486T442 495Q456 495 464 487ZM175 610T163 621T151 651Q151 670 163 681T193 693Q211 693 223 681T236 651Q236 633 224 622T193 610Q175 610 163 621ZM341 610T329 621T316 651Q316 669 328 681T359 693Q377
693 389 681T401 651Q401 633 389 622T359 610Q341 610 329 621Z" />
<glyph unicode="&#xfd;" glyph-name="yacute" horiz-adv-x="509" d="M444 495T462 495Q473 495 482 487T491 468Q491 461 488 455L205 -166Q197 -183 179 -183Q168 -183 160 -176T151 -158Q151 -152 154 -146L225 9L20 455Q17 461 17 467Q17 479 27 487T50 496Q69
496 76 478L256 74L436 477Q444 495 462 495ZM263 545T255 545Q248 545 243 550T237 562Q237 568 242 575L367 736Q382 756 402 756Q415 756 424 748T433 726Q433 709 416 693L269 551Q263 545 255 545Z" />
<glyph unicode="&#xfe;" glyph-name="thorn" horiz-adv-x="573" d="M370 497T419 467T496 379T524 243Q524 166 496 110T419 23T308 -7Q249 -7 206 18T141 93V-154Q141 -169 133 -177T111 -185Q97 -185 89 -177T80 -154V679Q80 694 88 702T111 710Q125 710 133
702T141 679V397Q163 446 206 471T308 497Q370 497 419 467ZM377 47T419 99T461 243Q461 337 419 390T300 444Q224 444 183 392T141 245Q141 150 182 99T299 47Q377 47 419 99Z" />
<glyph unicode="&#xff;" glyph-name="ydieresis" horiz-adv-x="509" d="M444 495T462 495Q473 495 482 487T491 468Q491 461 488 455L205 -166Q197 -183 179 -183Q168 -183 160 -176T151 -158Q151 -152 154 -146L225 9L20 455Q17 461 17 467Q17 479 27 487T50
496Q69 496 76 478L256 74L436 477Q444 495 462 495ZM154 610T142 621T130 651Q130 670 142 681T172 693Q190 693 202 681T215 651Q215 633 203 622T172 610Q154 610 142 621ZM320 610T308 621T295 651Q295 669 307 681T338 693Q356 693 368 681T380 651Q380 633
368 622T338 610Q320 610 308 621Z" />
<glyph unicode="&#x2013;" glyph-name="endash" horiz-adv-x="500" d="M14 244T7 250T0 265Q0 274 7 280T25 287H475Q486 287 493 281T500 265Q500 256 493 250T475 244H25Q14 244 7 250Z" />
<glyph unicode="&#x2014;" glyph-name="emdash" horiz-adv-x="1000" d="M14 244T7 250T0 265Q0 274 7 280T25 287H975Q986 287 993 281T1000 265Q1000 256 993 250T975 244H25Q14 244 7 250Z" />
<glyph unicode="&#x2018;" glyph-name="quoteleft" horiz-adv-x="220" d="M133 606T145 594T157 561Q157 540 144 527T112 513Q90 513 77 530T64 582Q64 652 108 701Q117 711 128 711Q137 711 144 705T151 689Q151 682 143 672Q118 646 114 608Q133 606 145 594Z" />
<glyph unicode="&#x2019;" glyph-name="quoteright" horiz-adv-x="220" d="M130 710T143 694T157 642Q157 571 112 523Q103 513 92 513Q83 513 76 519T69 534Q69 541 77 551Q102 579 106 615Q87 617 76 629T64 662Q64 683 76 696T108 710Q130 710 143 694Z" />
<glyph unicode="&#x201a;" glyph-name="quotesinglbase" horiz-adv-x="220" d="M130 91T143 74T157 23Q157 -48 112 -96Q103 -106 92 -106Q83 -106 76 -100T69 -85Q69 -78 77 -68Q102 -40 106 -4Q87 -2 76 10T64 43Q64 64 76 77T108 91Q130 91 143 74Z" />
<glyph unicode="&#x201c;" glyph-name="quotedblleft" horiz-adv-x="374" d="M133 606T145 594T157 561Q157 540 144 527T112 513Q90 513 77 530T64 582Q64 652 108 701Q117 711 128 711Q137 711 144 705T151 689Q151 682 143 672Q118 646 114 608Q133 606 145
594ZM287 606T299 594T311 561Q311 540 298 527T266 513Q244 513 231 530T218 582Q218 652 262 701Q271 711 282 711Q291 711 298 705T305 689Q305 682 297 672Q272 646 268 608Q287 606 299 594Z" />
<glyph unicode="&#x201d;" glyph-name="quotedblright" horiz-adv-x="374" d="M130 710T143 694T157 642Q157 571 112 523Q103 513 92 513Q83 513 76 519T69 534Q69 541 77 551Q102 579 106 615Q87 617 76 629T64 662Q64 683 76 696T108 710Q130 710 143 694ZM284
710T297 694T311 642Q311 571 266 523Q257 513 246 513Q237 513 230 519T223 534Q223 541 231 551Q256 579 260 615Q241 617 230 629T218 662Q218 683 230 696T262 710Q284 710 297 694Z" />
<glyph unicode="&#x201e;" glyph-name="quotedblbase" horiz-adv-x="374" d="M130 91T143 74T157 23Q157 -48 112 -96Q103 -106 92 -106Q83 -106 76 -100T69 -85Q69 -78 77 -68Q102 -40 106 -4Q87 -2 76 10T64 43Q64 64 76 77T108 91Q130 91 143 74ZM284 91T297
74T311 23Q311 -48 266 -96Q257 -106 246 -106Q237 -106 230 -100T223 -85Q223 -78 231 -68Q256 -40 260 -4Q241 -2 230 10T218 43Q218 64 230 77T262 91Q284 91 297 74Z" />
<glyph unicode="&#x2022;" glyph-name="bullet" horiz-adv-x="524" d="M214 88T172 111T106 175T81 265Q81 311 104 352T169 418T262 443Q310 443 351 420T418 356T443 265Q443 217 419 177T353 112T262 88Q214 88 172 111Z" />
<glyph unicode="&#x2039;" glyph-name="guilsinglleft" horiz-adv-x="247" d="M62 246Q56 257 56 265Q56 275 62 284L144 424Q152 439 170 439Q179 439 186 433T193 418Q193 413 190 405L120 265L190 125Q193 118 193 112Q193 103 186 97T170 91Q153 91 144 107L62 246Z" />
<glyph unicode="&#x203a;" glyph-name="guilsinglright" horiz-adv-x="247" d="M94 91T78 91Q68 91 61 97T54 113Q54 119 57 125L128 265L57 405Q54 411 54 417Q54 426 61 432T78 439Q95 439 103 424L185 284Q190 277 190 265Q190 255 185 246L103 107Q94 91 78 91Z" />
</font>
</defs>
</svg>
