<?xml version="1.0" standalone="no"?>
<!DOCTYPE svg PUBLIC "-//W3C//DTD SVG 1.1//EN" "http://www.w3.org/Graphics/SVG/1.1/DTD/svg11.dtd">
<svg xmlns="http://www.w3.org/2000/svg">
<defs >
<font id="Nunito" horiz-adv-x="551" ><font-face
    font-family="Nunito Light"
    units-per-em="1000"
    panose-1="0 0 4 0 0 0 0 0 0 0"
    ascent="1011"
    descent="-353"
    alphabetic="0" />
<glyph unicode=" " glyph-name="space" horiz-adv-x="252" />
<glyph unicode="!" glyph-name="exclam" horiz-adv-x="220" d="M96 168T91 174T86 190L106 673Q107 690 118 700T147 710Q163 710 172 700T180 672L125 190Q124 180 118 174T104 168Q96 168 91 174ZM75 -5T62 8T48 43Q48 64 61 77T95 91Q115 91 128 78T141 43Q141
22 128 9T95 -5Q75 -5 62 8Z" />
<glyph unicode="&quot;" glyph-name="quotedbl" horiz-adv-x="408" d="M113 429T108 435T103 451L104 667Q104 688 115 699T143 710Q158 710 167 701T176 676L175 667L144 451Q141 429 122 429Q113 429 108 435ZM309 429T304 435T299 451L300 667Q300 688 311
699T339 710Q354 710 363 701T372 676L371 667L340 451Q337 429 318 429Q309 429 304 435Z" />
<glyph unicode="#" glyph-name="numbersign" horiz-adv-x="600" d="M460 477L413 236H537Q548 236 556 228T564 209Q564 199 556 193T537 186H403L370 15Q369 6 362 1T345 -5Q332 -5 325 5T320 29L351 186H204L171 15Q170 6 163 1T146 -5Q133 -5 126 5T121 29L152
186H60Q49 186 41 194T33 213Q33 223 41 229T60 236H161L208 477H80Q69 477 61 485T53 504Q53 514 61 520T80 527H218L250 693Q251 702 258 707T276 713Q289 713 296 703T301 679L271 527H417L449 693Q451 702 458 707T475 713Q488 713 495 703T500 679L470 527H557Q568
527 576 519T584 500Q584 490 576 484T557 477H460ZM360 236L407 477H261L214 236H360Z" />
<glyph unicode="$" glyph-name="dollar" horiz-adv-x="600" d="M577 615T577 602Q577 590 570 582T550 573Q538 573 527 583Q484 622 434 640T323 658Q244 658 198 619T152 513Q152 472 176 446T236 404T333 369Q401 348 442 330T511 278T540 191Q540 106 480
52T317 -8L311 -90Q310 -103 302 -111T282 -120Q270 -120 263 -112T256 -90L262 -8Q136 2 54 74Q38 87 38 105Q38 116 45 124T62 133Q71 133 78 126Q127 85 178 66T292 47Q380 47 428 84T477 187Q477 223 455 246T399 283T307 315Q237 336 193 356T119 413T88 509Q88
567 117 613T198 685T319 713L326 795Q327 808 335 816T355 825Q367 825 374 817T381 795L375 710Q432 704 481 682T567 625Q577 615 577 602Z" />
<glyph unicode="%" glyph-name="percent" horiz-adv-x="923" d="M260 -17T243 -17Q233 -17 226 -10T219 8Q219 18 225 28L670 705Q681 722 698 722Q708 722 715 715T723 698Q723 687 716 677L271 0Q260 -17 243 -17ZM164 282T122 331T80 472Q80 585 126 649T253
713Q332 713 373 665T415 522Q415 409 369 346T242 282Q164 282 122 331ZM297 330T326 381T356 529Q356 599 331 632T253 666Q197 666 168 615T139 465Q139 396 164 363T242 330Q297 330 326 381ZM610 -7T569 41T527 182Q527 296 572 360T700 424Q779 424 820 376T861
233Q861 120 816 57T688 -7Q610 -7 569 41ZM744 41T773 92T802 240Q802 310 777 343T700 376Q644 376 615 325T586 176Q586 106 611 74T689 41Q744 41 773 92Z" />
<glyph unicode="&amp;" glyph-name="ampersand" horiz-adv-x="656" d="M628 27T628 17Q628 6 620 -1T600 -9Q587 -9 577 2L494 95Q453 46 398 20T277 -7Q213 -7 163 15T86 79T58 173Q58 237 97 288T227 395Q227 395 227 395T228 396Q179 452 161 487T143 563Q143
630 188 671T307 712Q376 712 416 675T457 575Q457 523 426 483T310 386L489 183Q532 266 538 387Q539 400 547 407T568 415Q580 415 587 408T594 386Q586 242 527 141L620 36Q628 27 628 17ZM204 531T218 503T275 425Q347 471 373 502T400 571Q400 612 375 636T308
661Q261 661 233 634T204 563Q204 531 218 503ZM334 45T379 68T459 135L263 356H262Q182 306 150 266T118 174Q118 115 161 80T279 45Q334 45 379 68Z" />
<glyph unicode="&apos;" glyph-name="quotesingle" horiz-adv-x="211" d="M113 429T108 435T103 451L104 667Q104 688 115 699T143 710Q158 710 167 701T176 676L175 667L144 451Q141 429 122 429Q113 429 108 435Z" />
<glyph unicode="(" glyph-name="parenleft" horiz-adv-x="297" d="M104 -4T104 184Q104 327 141 460T246 700Q255 715 271 715Q280 715 286 710T293 696Q293 689 289 682Q166 442 166 182Q166 2 223 -155Q225 -161 225 -165Q225 -176 217 -182T199 -189Q182 -189
175 -173Q104 -4 104 184Z" />
<glyph unicode=")" glyph-name="parenright" horiz-adv-x="297" d="M197 526T197 342Q197 200 160 68T55 -174Q46 -189 30 -189Q21 -189 15 -184T8 -170Q8 -163 12 -156Q135 76 135 344Q135 524 78 681Q76 687 76 691Q76 702 84 708T102 715Q119 715 126 699Q197
526 197 342Z" />
<glyph unicode="*" glyph-name="asterisk" horiz-adv-x="449" d="M428 563T436 556T444 537Q444 527 436 520T414 512L284 516L353 406Q358 399 358 389Q358 379 351 372T334 364Q318 364 309 381L248 496L187 380Q178 364 163 364Q153 364 146 371T138 388Q138
396 144 405L213 516L82 512Q68 512 61 519T53 537Q53 548 61 555T82 562L213 557L144 669Q138 678 138 686Q138 696 145 703T162 710Q179 710 187 693L248 578L309 693Q318 710 334 710Q343 710 350 703T358 685Q358 676 353 668L284 557L414 562Q428 563 436
556Z" />
<glyph unicode="+" glyph-name="plus" horiz-adv-x="600" d="M533 309T540 302T548 284Q548 273 540 266T521 258H326L311 67Q310 56 303 48T284 40Q274 40 267 48T261 67L276 258H85Q74 258 67 265T60 284Q60 294 68 301T87 309H281L296 501Q297 512 305 520T323
528Q333 528 340 520T346 501L331 309H522Q533 309 540 302Z" />
<glyph unicode="," glyph-name="comma" horiz-adv-x="220" d="M114 91T127 76T140 33Q140 -5 126 -38T86 -96Q76 -106 65 -106Q56 -106 50 -101T44 -87Q44 -77 53 -68Q80 -39 87 -4Q70 -2 59 11T48 43Q48 65 60 78T93 91Q114 91 127 76Z" />
<glyph unicode="-" glyph-name="hyphen" horiz-adv-x="421" d="M85 240T78 247T71 265Q71 277 79 284T100 292H326Q340 292 347 285T354 265Q354 254 346 247T324 240H99Q85 240 78 247Z" />
<glyph unicode="." glyph-name="period" horiz-adv-x="220" d="M75 -5T62 8T48 43Q48 64 61 77T95 91Q115 91 128 78T141 43Q141 22 128 9T95 -5Q75 -5 62 8Z" />
<glyph unicode="/" glyph-name="slash" horiz-adv-x="269" d="M12 -60T-8 -60Q-19 -60 -27 -53T-36 -35Q-36 -28 -34 -24L267 729Q271 738 278 743T293 748Q304 748 312 741T320 723Q320 715 318 711L19 -42Q12 -60 -8 -60Z" />
<glyph unicode="0" glyph-name="zero" horiz-adv-x="600" d="M182 -8T123 70T64 299Q64 429 94 522T183 664T322 713Q436 713 495 635T554 406Q554 209 486 101T295 -8Q182 -8 123 70ZM392 47T441 140T490 417Q490 540 449 599T322 658Q227 658 178 565T128 288Q128
165 169 106T297 47Q392 47 441 140Z" />
<glyph unicode="1" glyph-name="one" horiz-adv-x="600" d="M484 54T491 47T499 27Q499 15 492 8T471 0H142Q130 0 123 7T115 26Q115 38 122 46T143 54H278L324 626L211 557Q204 553 196 553Q184 553 176 561T168 582Q168 597 182 605L341 705Q352 712 364 712Q376
712 383 705T389 686L339 54H472Q484 54 491 47Z" />
<glyph unicode="2" glyph-name="two" horiz-adv-x="600" d="M524 54T524 29Q524 17 517 9T495 0H94Q82 0 75 7T67 25Q67 39 80 52L348 324Q413 390 439 438T466 538Q466 593 431 626T337 659Q281 659 234 641T142 585Q130 576 120 576Q110 576 104 582T98 600Q98
616 115 632Q156 669 215 691T336 713Q424 713 476 666T528 539Q528 475 496 416T388 281L160 54H500Q524 54 524 29Z" />
<glyph unicode="3" glyph-name="three" horiz-adv-x="600" d="M453 345T484 304T516 202Q516 139 488 92T406 19T281 -7Q217 -7 160 14T62 70Q51 80 51 94Q51 106 58 114T77 123Q89 123 98 115Q179 47 284 47Q363 47 408 87T454 200Q454 331 290 331H234Q223 331
217 339T210 359Q210 371 216 378T235 385H289Q370 385 418 427T466 543Q466 596 430 627T334 659Q280 659 233 641T142 585Q130 576 120 576Q110 576 104 582T98 600Q98 616 115 632Q156 669 215 691T337 713Q424 713 476 667T528 544Q528 482 493 432T396 360Q453
345 484 304Z" />
<glyph unicode="4" glyph-name="four" horiz-adv-x="600" d="M547 213T554 206T561 186Q561 174 554 167T533 160H444L433 24Q432 11 423 3T402 -5Q389 -5 380 4T372 27L383 160H78Q64 160 55 167T45 186Q45 197 55 210L428 695Q441 711 458 711Q471 711 478 703T485
681L448 213H534Q547 213 554 206ZM124 213H387L417 594L124 213Z" />
<glyph unicode="5" glyph-name="five" horiz-adv-x="600" d="M199 652L177 375Q206 405 248 421T336 438Q398 438 445 413T519 341T545 235Q545 164 515 109T429 24T303 -7Q243 -7 187 14T90 71Q78 82 78 97Q78 108 85 116T104 125Q117 125 127 116Q209 47 305
47Q386 47 434 97T482 232Q482 301 441 342T331 384Q226 384 163 303Q153 291 137 291Q125 291 118 299T111 324L139 674Q140 688 149 696T172 705H531Q545 705 552 698T560 679Q560 666 553 659T531 652H199Z" />
<glyph unicode="6" glyph-name="six" horiz-adv-x="599" d="M578 617T578 603Q578 591 571 583T553 575Q542 575 528 587Q493 621 449 640T356 659Q260 659 202 579T131 348L128 312Q155 370 207 404T325 438Q390 438 440 412T517 337T544 225Q544 158 515 105T433
22T315 -8Q196 -8 132 70T67 293Q67 420 102 515T203 661T356 713Q418 713 472 692T566 630Q578 617 578 603ZM269 384T230 362T168 299T146 208Q146 135 192 91T315 46Q389 46 435 95T481 225Q481 297 437 340T318 384Q269 384 230 362Z" />
<glyph unicode="7" glyph-name="seven" horiz-adv-x="600" d="M549 705T556 698T564 678Q564 668 558 656L182 7Q172 -10 155 -10Q144 -10 136 -3T127 17Q127 23 132 33L490 651H137Q123 651 115 658T107 678Q107 691 115 698T137 705H536Q549 705 556 698Z" />
<glyph unicode="8" glyph-name="eight" horiz-adv-x="600" d="M544 322T544 189Q544 130 514 86T426 18T292 -6Q173 -6 110 42T47 181Q47 245 86 295T194 363Q143 382 116 422T89 518Q89 576 118 620T202 688T329 713Q436 713 495 667T554 540Q554 475 519 427T424
359Q544 322 544 189ZM152 453T194 419T317 384Q401 384 446 424T491 534Q491 594 450 626T328 659Q243 659 198 621T152 514Q152 453 194 419ZM381 48T431 85T481 190Q481 263 439 296T299 330Q110 330 110 181Q110 48 289 48Q381 48 431 85Z" />
<glyph unicode="9" glyph-name="nine" horiz-adv-x="600" d="M422 713T486 635T551 412Q551 285 516 190T415 44T262 -8Q200 -8 146 13T52 75Q40 87 40 102Q40 114 47 122T65 130Q77 130 90 118Q125 84 169 65T262 46Q358 46 416 126T487 357L490 393Q463 335
411 301T293 267Q228 267 178 293T101 368T74 480Q74 547 103 600T185 683T303 713Q422 713 486 635ZM349 321T388 343T450 406T472 497Q472 570 426 614T303 659Q229 659 183 610T137 480Q137 408 181 365T300 321Q349 321 388 343Z" />
<glyph unicode=":" glyph-name="colon" horiz-adv-x="220" d="M107 400T94 413T80 448Q80 469 93 482T127 496Q147 496 160 483T173 448Q173 427 160 414T127 400Q107 400 94 413ZM75 -5T62 8T48 43Q48 64 61 77T95 91Q115 91 128 78T141 43Q141 22 128 9T95 -5Q75
-5 62 8Z" />
<glyph unicode=";" glyph-name="semicolon" horiz-adv-x="220" d="M147 496T160 483T173 448Q173 427 160 414T127 400Q107 400 94 413T80 448Q80 469 93 482T127 496Q147 496 160 483ZM114 91T127 76T140 33Q140 -5 126 -38T86 -96Q76 -106 65 -106Q56 -106 50
-101T44 -87Q44 -77 53 -68Q80 -39 87 -4Q70 -2 59 11T48 43Q48 65 60 78T93 91Q114 91 127 76Z" />
<glyph unicode="&lt;" glyph-name="less" horiz-adv-x="600" d="M528 518T538 518Q549 518 556 512T564 495Q564 480 548 473L121 284L518 94Q530 88 530 75Q530 63 522 56T501 48Q493 48 483 53L80 247Q60 258 60 281Q60 294 67 304T86 320L520 514Q528 518 538 518Z" />
<glyph unicode="=" glyph-name="equal" horiz-adv-x="600" d="M80 358T73 366T66 385Q66 395 74 402T93 409H528Q539 409 546 401T553 382Q553 372 545 365T526 358H91Q80 358 73 366ZM65 158T58 166T51 185Q51 195 59 202T78 209H513Q524 209 531 201T538 182Q538
172 530 165T511 158H76Q65 158 58 166Z" />
<glyph unicode="&gt;" glyph-name="greater" horiz-adv-x="600" d="M550 309T548 284Q545 258 521 247L87 53Q75 48 68 48Q56 48 49 55T42 72Q44 87 59 94L486 283L89 473Q76 479 76 495Q77 505 85 511T106 518Q116 518 124 514L527 320Q550 309 548 284Z" />
<glyph unicode="?" glyph-name="question" horiz-adv-x="436" d="M188 168T183 174T179 190Q182 237 197 274T233 340T287 405Q330 453 350 487T370 566Q370 609 339 634T254 659Q204 659 161 641T65 584Q54 576 44 576Q35 576 30 582T25 599Q25 619 40 631Q82
669 141 691T258 713Q339 713 386 675T434 572Q434 532 420 499T386 440T330 376Q281 324 254 283T217 187Q212 168 197 168Q188 168 183 174ZM166 -5T153 8T139 43Q139 64 152 77T186 91Q206 91 219 78T232 43Q232 22 219 9T186 -5Q166 -5 153 8Z" />
<glyph unicode="@" glyph-name="at" horiz-adv-x="922" d="M350 -150T255 -97T108 52T56 275Q56 405 111 503T262 656T476 710Q604 710 694 657T830 520T876 345Q876 244 846 181T771 91T677 64Q623 64 593 87T562 154H560Q536 113 497 89T407 64Q344 64 303 109T262
237Q262 304 288 364T363 461T474 498Q523 498 559 474T605 413H606L615 466Q617 476 624 481T643 487Q656 487 662 479T667 457L623 205Q620 186 620 171Q620 137 636 123T686 109Q717 109 748 132T801 208T823 345Q823 422 785 494T668 612T476 659Q372 659 289
612T157 478T109 275Q109 162 153 78T280 -53T477 -99Q559 -99 620 -75T722 -8Q736 6 750 6Q760 6 767 -2T774 -21Q774 -34 764 -44Q716 -94 642 -122T477 -150Q350 -150 255 -97ZM471 109T509 141T568 223T589 330Q589 389 560 420T479 452Q429 452 392 422T334
343T314 241Q314 178 344 144T418 109Q471 109 509 141Z" />
<glyph unicode="A" glyph-name="A" horiz-adv-x="720" d="M668 32T668 24Q668 11 659 3T638 -6Q629 -6 622 0T610 17L549 188H166L77 13Q69 -5 50 -5Q38 -5 30 3T21 23Q21 31 25 39L359 686Q371 710 396 710Q408 710 418 703T433 682L666 36Q668 32 668 24ZM193
242H530L391 630L193 242Z" />
<glyph unicode="B" glyph-name="B" horiz-adv-x="670" d="M542 344T572 304T602 204Q602 107 540 54T364 0H109Q93 0 84 10T76 37L125 674Q126 688 135 696T159 705H389Q498 705 555 661T612 533Q612 470 579 425T483 359Q542 344 572 304ZM185 652L164 385H375Q458
385 504 422T550 531Q550 652 387 652H185ZM450 53T495 89T540 199Q540 331 376 331H160L138 53H364Q450 53 495 89Z" />
<glyph unicode="C" glyph-name="C" horiz-adv-x="677" d="M277 -8T211 31T108 145T72 322Q72 440 112 528T228 665T405 713Q482 713 545 690T652 623Q662 613 662 600Q662 588 655 580T636 571Q626 571 617 579Q574 620 524 639T403 658Q320 658 260 618T168 501T136
321Q136 190 199 119T378 47Q433 47 484 66T578 123Q589 133 600 133Q610 133 616 126T622 107Q622 93 611 83Q512 -8 365 -8Q277 -8 211 31Z" />
<glyph unicode="D" glyph-name="D" horiz-adv-x="731" d="M93 0T84 10T76 37L125 674Q126 688 135 696T159 705H349Q507 705 592 621T677 383Q677 264 636 178T515 46T324 0H109Q93 0 84 10ZM322 54Q465 54 538 139T612 384Q612 651 347 651H185L138 54H322Z" />
<glyph unicode="E" glyph-name="E" horiz-adv-x="579" d="M551 705T558 698T566 679Q566 667 559 660T538 652H185L164 385H494Q506 385 513 378T521 358Q521 346 514 339T493 331H160L138 53H488Q500 53 507 46T515 27Q515 15 508 8T487 0H105Q89 0 82 8T75 33L125
675Q127 705 158 705H539Q551 705 558 698Z" />
<glyph unicode="F" glyph-name="F" horiz-adv-x="553" d="M541 705T548 698T556 679Q556 667 549 660T528 652H185L164 385H484Q496 385 503 378T511 358Q511 346 504 339T483 331H159L135 24Q134 10 126 3T104 -5Q91 -5 82 4T74 27L125 675Q126 690 135 697T159
705H529Q541 705 548 698Z" />
<glyph unicode="G" glyph-name="G" horiz-adv-x="719" d="M329 658T266 617T169 499T135 316Q135 186 199 116T389 46Q433 46 480 54T567 78L585 309H427Q413 309 405 316T397 335Q397 347 405 354T427 361H609Q625 361 634 351T642 325L623 66Q620 40 599 32Q556
14 498 3T389 -8Q235 -8 153 76T71 312Q71 433 113 523T234 663T417 712Q564 712 652 627Q665 617 665 599Q665 587 658 579T640 570Q631 570 621 578Q575 620 527 639T417 658Q329 658 266 617Z" />
<glyph unicode="H" glyph-name="H" horiz-adv-x="754" d="M680 710T689 702T697 678L645 24Q644 11 636 3T614 -5Q601 -5 592 3T584 27L608 331H160L136 24Q135 11 126 3T105 -5Q92 -5 83 4T75 27L126 681Q127 694 136 702T157 710Q170 710 179 702T187 678L164
385H612L636 681Q637 694 645 702T667 710Q680 710 689 702Z" />
<glyph unicode="I" glyph-name="I" horiz-adv-x="244" d="M92 -5T83 4T75 27L126 681Q127 694 136 702T157 710Q171 710 179 702T187 678L136 24Q135 10 127 3T105 -5Q92 -5 83 4Z" />
<glyph unicode="J" glyph-name="J" horiz-adv-x="311" d="M-12 -6T-19 2T-26 23Q-26 33 -19 39T0 47L32 49Q87 53 118 87T154 184L193 679Q194 693 203 701T226 710Q240 710 248 702T255 679L215 182Q208 95 163 49T35 -3L2 -5Q-12 -6 -19 2Z" />
<glyph unicode="K" glyph-name="K" horiz-adv-x="613" d="M569 709T578 709Q589 709 597 701T606 682Q606 669 595 661L221 360L564 42Q573 33 573 23Q573 12 565 4T545 -4Q534 -4 526 4L161 340L136 24Q135 12 126 4T105 -5Q92 -5 83 4T75 27L126 681Q127 693
136 701T157 710Q170 710 179 701T187 678L164 380L561 703Q569 709 578 709Z" />
<glyph unicode="L" glyph-name="L" horiz-adv-x="533" d="M89 0T81 8T75 33L126 681Q127 694 136 702T158 710Q172 710 180 702T187 678L138 54H479Q491 54 498 47T506 27Q506 15 499 8T478 0H105Q89 0 81 8Z" />
<glyph unicode="M" glyph-name="M" horiz-adv-x="840" d="M771 712T778 705T783 686L731 22Q730 9 722 2T701 -5Q689 -5 681 3T673 26L718 580L443 126Q438 118 430 113T412 108Q389 108 380 129L177 579L133 22Q132 9 124 2T103 -5Q91 -5 83 3T75 26L126 679Q127
693 135 701T158 710Q177 710 188 687L416 172L726 692Q737 712 758 712Q771 712 778 705Z" />
<glyph unicode="N" glyph-name="N" horiz-adv-x="735" d="M663 710T671 701T679 679L627 25Q625 -5 599 -5Q582 -5 569 12L178 603L131 23Q130 10 122 3T102 -5Q90 -5 82 4T74 27L125 679Q126 694 134 702T156 710Q174 710 184 693L575 106L621 682Q622 695 630
702T651 710Q663 710 671 701Z" />
<glyph unicode="O" glyph-name="O" horiz-adv-x="757" d="M284 -8T215 31T109 145T72 322Q72 440 112 528T225 665T395 713Q490 713 559 674T665 560T702 383Q702 265 663 177T550 40T378 -8Q284 -8 215 31ZM459 48T517 88T607 203T638 383Q638 516 575 586T395
657Q315 657 257 617T167 501T136 321Q136 189 199 119T379 48Q459 48 517 88Z" />
<glyph unicode="P" glyph-name="P" horiz-adv-x="638" d="M496 705T553 654T611 514Q611 406 545 352T363 297H156L135 24Q134 11 125 3T104 -5Q91 -5 82 4T74 27L125 675Q127 705 158 705H388Q496 705 553 654ZM549 350T549 512Q549 580 509 616T386 652H184L160
350H362Q549 350 549 512Z" />
<glyph unicode="Q" glyph-name="Q" horiz-adv-x="757" d="M702 238T644 139T475 7Q493 -1 508 -17T537 -62L580 -142Q584 -149 584 -157Q584 -169 575 -176T554 -184Q535 -184 525 -166L473 -69Q440 -10 359 -7Q273 -4 209 35T108 148T72 322Q72 440 112 528T225
665T395 713Q490 713 559 674T665 560T702 383Q702 238 644 139ZM459 48T517 88T607 203T638 383Q638 516 575 586T395 657Q315 657 257 617T167 501T136 321Q136 189 199 119T379 48Q459 48 517 88Z" />
<glyph unicode="R" glyph-name="R" horiz-adv-x="682" d="M603 36Q607 29 607 21Q607 10 598 3T577 -5Q558 -5 548 14L433 226Q409 272 380 289T296 306H158L136 24Q135 10 127 3T104 -5Q90 -5 82 3T75 28L125 674Q126 688 135 696T159 705H404Q511 705 568 658T626
521Q626 429 574 376T421 314Q443 305 459 287T494 236L603 36ZM380 359Q473 359 519 397T565 517Q565 586 525 619T403 652H185L162 359H380Z" />
<glyph unicode="S" glyph-name="S" horiz-adv-x="607" d="M143 -8T50 74Q34 87 34 105Q34 117 41 125T58 133Q68 133 74 127Q124 85 178 66T302 46Q395 46 444 82T493 182Q493 220 470 245T410 284T314 315Q239 336 193 355T115 414T83 517Q83 576 114 620T202
689T337 713Q409 713 472 690T579 625Q589 615 589 601Q589 590 582 582T563 573Q550 573 539 583Q499 619 448 639T337 659Q244 659 195 622T146 519Q146 476 171 448T235 405T336 372Q409 351 452 333T526 279T556 185Q556 96 488 44T302 -8Q143 -8 50 74Z" />
<glyph unicode="T" glyph-name="T" horiz-adv-x="590" d="M265 -5T256 4T248 27L297 651H68Q56 651 49 658T41 678Q41 690 48 697T69 705H592Q604 705 611 698T619 678Q619 666 612 659T591 651H359L309 24Q308 11 300 3T278 -5Q265 -5 256 4Z" />
<glyph unicode="U" glyph-name="U" horiz-adv-x="720" d="M218 -8T153 54T87 234Q87 246 89 272L121 681Q122 694 131 702T152 710Q165 710 174 701T182 678L150 275Q149 263 149 241Q149 47 345 47Q452 47 508 100T574 264L607 681Q608 694 616 702T638 710Q651
710 660 702T668 678L635 271Q624 131 551 62T345 -8Q218 -8 153 54Z" />
<glyph unicode="V" glyph-name="V" horiz-adv-x="680" d="M646 710T666 710Q677 710 685 703T694 685Q694 677 690 669L358 17Q346 -5 322 -5Q310 -5 300 2T286 21L55 670Q53 678 53 681Q53 694 62 702T83 710Q104 710 111 690L327 78L639 694Q646 710 666 710Z" />
<glyph unicode="W" glyph-name="W" horiz-adv-x="1096" d="M1036 710T1056 710Q1067 710 1075 703T1083 685Q1083 678 1080 670L801 17Q797 6 788 1T768 -5Q757 -5 748 1T736 21L577 608L324 17Q320 6 311 1T291 -5Q280 -5 271 1T258 21L82 672Q81 675 81 682Q81
695 90 702T111 710Q121 710 128 705T139 688L298 87L552 685Q557 697 565 703T584 710Q594 710 602 704T614 685L772 88L1029 693Q1036 710 1056 710Z" />
<glyph unicode="X" glyph-name="X" horiz-adv-x="638" d="M584 710T597 710Q608 710 617 702T626 683Q626 672 618 663L364 361L584 42Q590 34 590 23Q590 11 581 3T559 -5Q542 -5 534 9L326 315L66 6Q56 -6 43 -6Q31 -6 23 2T14 22Q14 32 23 44L293 363L86 663Q80
672 80 681Q80 693 90 701T112 710Q126 710 135 697L332 408L574 699Q584 710 597 710Z" />
<glyph unicode="Y" glyph-name="Y" horiz-adv-x="591" d="M570 710T587 710Q598 710 605 703T612 685Q612 673 604 664L333 337L309 24Q308 11 299 3T278 -5Q265 -5 256 4T247 27L272 337L52 664Q45 674 45 683Q45 695 54 702T75 709Q91 709 100 696L305 390L556
693Q570 710 587 710Z" />
<glyph unicode="Z" glyph-name="Z" horiz-adv-x="584" d="M562 705T568 698T575 680Q575 666 567 657L104 53H509Q522 53 529 46T536 27Q536 15 529 8T508 0H49Q37 0 30 7T23 27Q23 38 30 48L494 652H100Q88 652 81 659T73 678Q73 690 80 697T101 705H551Q562
705 568 698Z" />
<glyph unicode="[" glyph-name="bracketleft" horiz-adv-x="297" d="M124 -180T103 -156T85 -87L140 612Q143 657 168 681T239 705H303Q317 705 324 699T332 682Q332 670 324 663T301 655H248Q204 655 201 609L146 -84Q143 -130 185 -130H238Q265 -130 265 -154Q265
-167 257 -173T235 -180H169Q124 -180 103 -156Z" />
<glyph unicode="\" glyph-name="backslash" horiz-adv-x="269" d="M24 712Q20 728 30 738T54 749Q63 749 70 744T80 727L261 -25Q265 -40 255 -50T231 -60Q209 -60 205 -39L24 712Z" />
<glyph unicode="]" glyph-name="bracketright" horiz-adv-x="297" d="M177 705T198 681T216 612L161 -87Q156 -132 132 -156T62 -180H-2Q-16 -180 -23 -174T-31 -157Q-31 -145 -23 -138T-1 -130H53Q97 -130 100 -84L155 609Q157 632 147 643T115 655H63Q36 655
36 679Q36 692 44 698T66 705H132Q177 705 198 681Z" />
<glyph unicode="^" glyph-name="asciicircum" horiz-adv-x="600" d="M530 170T530 167Q530 156 521 148T502 140Q488 140 484 152L325 563L103 152Q97 140 84 140Q74 140 67 146T59 164Q59 171 63 179L295 606Q300 616 309 622T331 628Q342 628 350 622T363 606L528
178Q530 170 530 167Z" />
<glyph unicode="_" glyph-name="underscore" horiz-adv-x="500" d="M-8 -43T-14 -37T-21 -22Q-20 -13 -13 -7T6 0H456Q467 0 473 -6T479 -22Q479 -31 472 -37T452 -43H3Q-8 -43 -14 -37Z" />
<glyph unicode="`" glyph-name="grave" horiz-adv-x="300" d="M62 709Q56 720 56 729Q56 742 65 750T86 759Q107 759 117 736L187 572Q189 568 189 562Q189 554 184 550T170 545Q157 545 150 556L62 709Z" />
<glyph unicode="a" glyph-name="a" horiz-adv-x="526" d="M454 497T454 337Q454 321 453 312L431 23Q430 10 422 3T401 -5Q387 -5 379 4T371 27L375 83Q353 40 313 17T221 -7Q148 -7 102 32T56 132Q56 187 85 219T180 265T355 280H390L393 314Q394 322 394 336Q394
392 368 418T286 444Q208 444 122 390Q115 386 109 386Q99 386 93 394T86 413Q86 430 101 440Q137 466 188 481T288 497Q454 497 454 337ZM293 46T336 88T384 199L387 235H358Q266 235 215 226T142 196T120 136Q120 95 150 71T231 46Q293 46 336 88Z" />
<glyph unicode="b" glyph-name="b" horiz-adv-x="573" d="M379 497T426 468T499 386T525 262Q525 182 497 121T417 27T298 -7Q238 -7 194 19T129 95L123 26Q122 10 113 3T91 -5Q77 -5 69 2T63 26L115 683Q116 696 126 703T148 711Q161 711 169 704T176 683L154
408Q178 450 222 473T318 497Q379 497 426 468ZM373 47T417 105T462 264Q462 349 421 396T306 444Q229 444 185 386T140 225Q140 138 180 93T296 47Q373 47 417 105Z" />
<glyph unicode="c" glyph-name="c" horiz-adv-x="475" d="M201 -7T152 22T76 104T49 227Q49 308 78 369T161 463T289 497Q339 497 382 482T451 444Q463 433 463 418Q463 406 456 397T438 388Q431 388 423 394Q360 444 288 444Q205 444 159 386T113 225Q113 142
154 95T272 47Q309 47 339 59T400 96Q409 102 416 102Q426 102 433 94T441 76Q441 65 432 56Q402 26 358 10T266 -7Q201 -7 152 22Z" />
<glyph unicode="d" glyph-name="d" horiz-adv-x="573" d="M512 711T520 704T527 683L476 26Q475 10 466 3T443 -5Q430 -5 422 2T415 26L420 82Q395 40 351 17T256 -7Q195 -7 148 22T75 104T49 227Q49 307 77 368T157 463T276 497Q335 497 379 472T444 399L466
683Q467 697 476 704T499 711Q512 711 520 704ZM345 47T389 105T434 265Q434 352 394 398T278 444Q201 444 157 387T113 228Q113 141 153 94T268 47Q345 47 389 105Z" />
<glyph unicode="e" glyph-name="e" horiz-adv-x="526" d="M112 235V225Q112 141 154 94T275 47Q316 47 354 59T422 94Q432 101 441 101Q451 101 457 94T464 76Q464 62 452 51Q425 26 375 10T273 -7Q169 -7 109 56T49 227Q49 307 78 368T161 463T287 497Q383 497
433 441T483 273Q483 254 474 245T449 235H112ZM216 447T172 404T116 280H427Q430 362 393 404T290 447Q216 447 172 404Z" />
<glyph unicode="f" glyph-name="f" horiz-adv-x="315" d="M355 707T363 700T371 682Q371 672 364 665T344 656L315 654Q253 650 222 617T186 517L184 485H305Q317 485 323 479T330 461Q330 450 324 443T304 436H180L148 25Q147 10 138 3T117 -5Q104 -5 95 2T87
25L118 436H45Q33 436 27 443T20 461Q20 472 26 478T45 485H122L124 510Q132 606 180 653T323 705L340 706Q355 707 363 700Z" />
<glyph unicode="g" glyph-name="g" horiz-adv-x="577" d="M500 495T508 488T515 464L480 28Q463 -187 260 -187Q201 -187 152 -172T66 -130Q51 -119 51 -103Q51 -92 58 -84T76 -76Q84 -76 89 -80Q131 -108 170 -120T260 -133Q408 -133 420 25L427 107Q404 63 360
39T261 15Q165 15 108 76T50 239Q50 316 78 374T158 465T278 497Q339 497 383 471T448 398L454 464Q455 480 464 487T486 495Q500 495 508 488ZM349 69T393 123T438 274Q438 355 397 399T281 444Q202 444 158 389T114 237Q114 155 154 112T271 69Q349 69 393 123Z"
/>
<glyph unicode="h" glyph-name="h" horiz-adv-x="561" d="M402 497T445 456T488 334Q488 316 487 307L466 26Q465 10 456 3T433 -5Q420 -5 412 2T405 26L426 303Q427 311 427 326Q427 443 311 443Q237 443 194 400T144 281L124 26Q122 10 113 3T91 -5Q77 -5 69
2T63 26L115 683Q116 696 125 703T148 711Q161 711 169 704T176 683L154 408Q179 451 222 474T321 497Q402 497 445 456Z" />
<glyph unicode="i" glyph-name="i" horiz-adv-x="222" d="M77 -5T69 2T63 26L98 467Q99 481 108 488T131 495Q144 495 152 488T159 467L124 26Q122 10 113 3T91 -5Q77 -5 69 2ZM124 608T112 620T99 651Q99 671 111 683T144 695Q164 695 176 683T189 651Q189 632
177 620T144 608Q124 608 112 620Z" />
<glyph unicode="j" glyph-name="j" horiz-adv-x="222" d="M-107 -184T-114 -177T-121 -158Q-121 -148 -114 -141T-95 -133L-66 -131Q-4 -127 26 -95T61 4L98 465Q99 480 108 487T129 495Q142 495 151 488T159 465L123 11Q116 -84 69 -130T-73 -182L-92 -183Q-107
-184 -114 -177ZM124 608T112 620T99 651Q99 671 111 683T144 695Q164 695 176 683T189 651Q189 632 177 620T144 608Q124 608 112 620Z" />
<glyph unicode="k" glyph-name="k" horiz-adv-x="484" d="M415 491T425 491Q436 491 444 483T452 464Q452 453 442 444L213 251L434 42Q443 33 443 23Q443 12 435 4T415 -5Q404 -5 396 3L141 236L124 23Q123 10 115 3T94 -5Q81 -5 72 4T63 27L115 682Q116 695
126 702T148 710Q162 710 169 702T176 678L143 261L407 484Q415 491 425 491Z" />
<glyph unicode="l" glyph-name="l" horiz-adv-x="222" d="M77 -5T69 2T63 26L115 683Q116 697 125 704T148 711Q161 711 169 704T176 683L124 26Q122 10 113 3T91 -5Q77 -5 69 2Z" />
<glyph unicode="m" glyph-name="m" horiz-adv-x="843" d="M694 497T732 456T771 336Q771 317 770 307L748 26Q747 10 738 3T716 -5Q703 -5 695 2T687 26L709 303Q710 313 710 330Q710 388 685 415T607 443Q540 443 501 401T456 280L436 26Q435 10 426 3T404 -5Q391
-5 383 2T375 26L397 303Q398 313 398 330Q398 388 373 415T295 443Q229 443 190 401T144 280L124 26Q122 10 113 3T91 -5Q77 -5 69 2T63 26L98 467Q99 481 108 488T131 495Q144 495 151 488T158 467L153 408Q201 497 307 497Q423 497 452 404Q476 448 520 472T619
497Q694 497 732 456Z" />
<glyph unicode="n" glyph-name="n" horiz-adv-x="561" d="M402 497T445 456T488 334Q488 316 487 307L466 26Q465 10 456 3T433 -5Q420 -5 412 2T405 26L426 303Q427 311 427 326Q427 443 311 443Q237 443 194 400T144 281L124 26Q122 10 113 3T91 -5Q77 -5 69
2T63 26L98 467Q99 481 108 488T131 495Q144 495 151 488T158 467L153 406Q178 449 221 473T321 497Q402 497 445 456Z" />
<glyph unicode="o" glyph-name="o" horiz-adv-x="545" d="M201 -7T152 22T76 104T49 227Q49 308 77 369T158 463T279 497Q345 497 394 468T470 386T497 262Q497 182 469 121T388 27T266 -7Q201 -7 152 22ZM346 47T390 105T434 265Q434 350 393 397T279 444Q201
444 157 386T113 224Q113 138 153 93T269 47Q346 47 390 105Z" />
<glyph unicode="p" glyph-name="p" horiz-adv-x="573" d="M379 497T426 469T499 387T525 263Q525 183 497 122T417 27T298 -7Q239 -7 195 19T129 94L109 -157Q108 -171 99 -178T77 -185Q64 -185 56 -178T48 -157L98 464Q99 480 108 487T131 495Q144 495 152 488T159
464L154 409Q178 450 222 473T318 497Q379 497 426 469ZM373 47T417 104T461 263Q461 349 421 396T306 444Q229 444 185 386T140 225Q140 138 180 93T296 47Q373 47 417 104Z" />
<glyph unicode="q" glyph-name="q" horiz-adv-x="573" d="M496 495T504 488T511 464L461 -157Q460 -171 451 -178T428 -185Q415 -185 407 -178T400 -157L419 82Q395 40 351 17T255 -7Q194 -7 147 22T74 104T48 228Q48 308 76 369T156 463T275 497Q335 497 379
471T444 396L450 464Q451 480 460 487T482 495Q496 495 504 488ZM344 47T388 105T433 265Q433 352 393 398T277 444Q200 444 156 386T112 226Q112 141 152 94T267 47Q344 47 388 105Z" />
<glyph unicode="r" glyph-name="r" horiz-adv-x="339" d="M344 497T352 490T360 471Q359 460 353 452T333 443L306 440Q230 433 190 394T144 284L124 26Q122 10 113 3T91 -5Q77 -5 69 2T63 26L98 467Q99 481 108 488T131 495Q144 495 151 488T158 467L153 405Q178
447 218 468T319 495L330 496Q344 497 352 490Z" />
<glyph unicode="s" glyph-name="s" horiz-adv-x="478" d="M171 -7T124 8T49 48Q36 60 36 75Q36 87 42 94T59 102Q67 102 76 96Q111 71 146 59T225 46Q354 46 354 127Q354 153 338 169T298 195T233 217Q182 232 151 245T98 285T76 355Q76 421 127 459T263 497Q312
497 355 481T424 439Q434 429 434 417Q434 406 427 398T409 390Q399 390 387 399Q363 419 331 431T263 444Q203 444 171 422T139 358Q139 332 155 316T193 291T259 268Q309 254 340 241T394 200T416 130Q416 67 364 30T223 -7Q171 -7 124 8Z" />
<glyph unicode="t" glyph-name="t" horiz-adv-x="327" d="M159 171Q158 164 158 151Q158 100 182 73T249 45Q263 45 274 46T291 48Q300 48 305 42T311 23Q311 7 296 1T240 -6Q174 -6 136 33T97 144Q97 158 98 166L119 436H45Q34 436 27 442T20 461Q20 472 27 478T45
485H122L132 610Q134 622 142 630T164 638Q178 638 186 630T193 608L183 485H305Q316 485 323 479T330 461Q330 449 323 443T304 436H180L159 171Z" />
<glyph unicode="u" glyph-name="u" horiz-adv-x="553" d="M475 495T483 488T490 464L455 23Q454 9 445 2T422 -5Q409 -5 402 2T395 23L400 85Q375 41 333 17T237 -7Q157 -7 115 34T72 157Q72 174 73 183L95 464Q96 480 105 487T128 495Q141 495 149 488T156 464L134
188Q133 180 133 164Q133 47 246 47Q317 47 360 90T409 210L429 464Q430 480 439 487T462 495Q475 495 483 488Z" />
<glyph unicode="v" glyph-name="v" horiz-adv-x="509" d="M461 490T477 490Q489 490 497 483T506 463Q506 455 502 448L277 19Q271 7 260 1T237 -6Q224 -6 213 2T196 24L39 449Q37 453 37 461Q37 473 46 481T67 489Q87 489 94 469L239 61L452 473Q461 490 477 490Z" />
<glyph unicode="w" glyph-name="w" horiz-adv-x="836" d="M763 490T780 490Q793 490 802 482T812 462Q812 456 809 450L618 22Q612 10 602 4T578 -3Q565 -3 554 5T538 27L430 405L262 22Q257 10 247 4T223 -3Q209 -3 198 5T182 27L59 452Q58 455 58 462Q58 475
67 483T89 491Q99 491 106 486T117 469L226 72L396 461Q402 476 413 483T436 491Q448 491 458 483T473 461L581 74L754 473Q763 490 780 490Z" />
<glyph unicode="x" glyph-name="x" horiz-adv-x="512" d="M440 490T452 490Q463 490 472 482T481 463Q481 452 473 444L293 249L452 42Q459 34 459 24Q459 13 449 4T427 -5Q413 -5 405 6L253 205L67 4Q58 -6 46 -6Q35 -6 27 2T18 22Q18 33 27 42L219 251L70 443Q63
451 63 460Q63 473 73 482T95 491Q109 491 117 480L258 295L430 480Q440 490 452 490Z" />
<glyph unicode="y" glyph-name="y" horiz-adv-x="509" d="M461 490T477 490Q489 490 497 483T506 463Q506 455 502 448L178 -167Q168 -185 149 -185Q138 -185 130 -179T122 -162Q122 -156 126 -149L205 1L39 449Q37 453 37 461Q37 473 46 481T67 489Q87 489 94
469L239 61L452 473Q461 490 477 490Z" />
<glyph unicode="z" glyph-name="z" horiz-adv-x="499" d="M455 485T461 478T468 461Q468 449 458 437L115 50H418Q430 50 437 43T444 25Q444 14 437 7T417 0H50Q39 0 33 6T26 23Q26 35 36 45L383 436H98Q86 436 80 443T73 461Q73 472 80 478T99 485H444Q455 485 461 478Z" />
<glyph unicode="{" glyph-name="braceleft" horiz-adv-x="334" d="M354 705T361 699T369 681Q369 669 361 662T341 655H285Q240 655 237 609L218 364Q214 321 192 296T139 263Q169 256 187 231T202 162L183 -84Q180 -130 222 -130H274Q287 -130 294 -137T302 -155Q302
-167 295 -173T273 -180H216Q165 -180 142 -156T122 -87L141 156Q144 198 130 216T74 237Q47 240 47 263Q47 274 55 280T79 288Q120 291 137 310T158 370L176 612Q179 657 204 681T274 705H341Q354 705 361 699Z" />
<glyph unicode="|" glyph-name="bar" horiz-adv-x="253" d="M80 -185T72 -176T66 -154L131 679Q132 692 141 701T163 710Q176 710 184 701T191 679L126 -154Q124 -168 115 -176T92 -185Q80 -185 72 -176Z" />
<glyph unicode="}" glyph-name="braceright" horiz-adv-x="334" d="M290 286T290 263Q290 253 282 246T259 237Q218 235 200 216T179 156L161 -87Q157 -132 133 -156T63 -180H-4Q-17 -180 -24 -174T-32 -156Q-32 -144 -24 -137T-1 -130H52Q97 -130 100 -84L120
162Q123 205 145 230T198 263Q169 270 151 295T136 364L154 609Q156 632 146 643T114 655H62Q49 655 42 661T35 679Q35 692 42 698T64 705H121Q221 705 215 612L197 370Q194 328 208 310T264 289Q290 286 290 263Z" />
<glyph unicode="~" glyph-name="asciitilde" horiz-adv-x="600" d="M383 218T355 229T283 265Q251 283 231 292T191 301Q142 301 112 257Q102 242 86 242Q77 242 71 247T65 262Q65 270 71 279Q117 350 192 350Q224 350 252 339T324 303Q356 285 376 276T416 267Q465
267 495 311Q505 326 520 326Q529 326 535 321T542 306Q542 297 535 289Q489 218 415 218Q383 218 355 229Z" />
<glyph unicode="&#xa0;" glyph-name="uni00A0" horiz-adv-x="252" />
<glyph unicode="&#xa1;" glyph-name="exclamdown" horiz-adv-x="220" d="M107 400T94 413T80 447Q80 468 93 481T126 495Q147 495 160 482T173 447Q173 426 160 413T126 400Q107 400 94 413ZM60 -185T50 -175T42 -148L95 301Q96 311 102 316T117 322Q125 322 130
316T134 301L116 -148Q115 -164 104 -174T77 -185Q60 -185 50 -175Z" />
<glyph unicode="&#xa2;" glyph-name="cent" horiz-adv-x="600" d="M250 444T205 386T159 225Q159 142 200 95T318 47Q355 47 385 59T446 96Q454 102 462 102Q472 102 479 95T486 76Q486 65 477 56Q449 28 409 12T323 -7L317 -90Q316 -103 308 -111T288 -120Q276
-120 269 -112T262 -90L268 -3Q188 11 142 72T95 227Q95 342 152 414T308 496L315 580Q316 593 324 601T344 610Q357 610 364 602T370 580L364 496Q406 492 441 478T497 444Q509 433 509 418Q509 406 502 397T484 388Q477 388 469 394Q437 418 405 431T334 444Q250
444 205 386Z" />
<glyph unicode="&#xa3;" glyph-name="sterling" horiz-adv-x="600" d="M593 615T593 600Q593 589 586 581T569 573Q560 573 547 584Q514 618 470 638T380 659Q317 659 280 623T238 518L227 378H394Q405 378 411 371T417 353Q417 342 410 335T391 328H223L201 54H520Q533
54 540 47T547 27Q547 14 539 7T517 0H53Q27 0 27 27Q27 39 35 46T57 54H140L162 328H75Q65 328 59 335T53 353Q53 364 60 371T79 378H166L177 517Q185 609 238 661T379 713Q438 713 492 691T582 627Q593 615 593 600Z" />
<glyph unicode="&#xa4;" glyph-name="currency" horiz-adv-x="600" d="M101 36T94 43T87 60Q88 68 96 76L137 117Q115 144 104 178T93 250Q93 325 136 380L96 422Q87 430 87 439Q87 448 94 455T111 462Q119 462 127 454L168 413Q222 454 300 454Q377 454 433 413L474
454Q481 461 490 461Q499 461 506 455T514 438Q514 430 506 422L464 380Q508 326 508 250Q508 214 497 179T464 117L506 77Q512 69 514 59Q513 49 505 42T488 35Q480 37 474 43L430 86Q378 45 300 45Q227 45 170 85L127 43Q119 35 110 35Q101 36 94 43ZM348 93T382
115T433 173T451 250Q451 290 434 326T382 384T300 407Q252 407 218 385T167 326T149 250Q149 210 166 174T218 116T300 93Q348 93 382 115Z" />
<glyph unicode="&#xa5;" glyph-name="yen" horiz-adv-x="600" d="M580 710T594 710Q605 710 612 702T620 683Q620 672 612 663L372 380H518Q528 380 534 373T540 355Q540 344 533 337T514 330H338L330 230H506Q516 230 522 223T528 205Q528 194 521 187T502 180H326L314
27Q313 12 305 4T283 -5Q269 -5 261 4T253 27L265 180H88Q78 180 72 187T66 205Q66 216 73 223T92 230H269L277 330H100Q90 330 84 337T78 355Q78 366 85 373T104 380H251L56 663Q51 669 51 679Q51 692 60 700T80 709Q93 709 102 697L312 391L570 697Q580 710 594
710Z" />
<glyph unicode="&#xa6;" glyph-name="brokenbar" horiz-adv-x="253" d="M124 366T116 375T109 397L131 679Q132 692 141 701T163 710Q176 710 184 701T191 679L169 397Q168 384 159 375T136 366Q124 366 116 375ZM80 -185T72 -176T66 -154L87 128Q88 141 97 150T120
159Q133 159 140 150T147 128L126 -154Q125 -167 115 -176T92 -185Q80 -185 72 -176Z" />
<glyph unicode="&#xa7;" glyph-name="section" horiz-adv-x="524" d="M476 151T458 115T410 54Q420 28 420 -4Q420 -88 369 -137T231 -186Q120 -186 51 -133Q39 -124 39 -109Q39 -97 46 -89T63 -80Q72 -80 79 -86Q114 -111 149 -122T231 -133Q292 -133 326 -101T360
-11Q360 28 340 56T272 113L189 162Q115 205 84 244T52 335Q52 376 69 413T116 474Q107 500 107 530Q107 613 159 662T298 712Q343 712 388 696T457 658Q466 649 466 637Q466 626 459 617T441 608Q431 608 423 615Q369 659 293 659Q237 659 203 625T168 535Q168
497 188 470T255 414L338 364Q413 319 444 279T476 188Q476 151 458 115ZM415 135T415 186Q415 219 392 246T313 308L235 356Q174 393 145 428Q112 390 112 341Q112 309 135 281T214 218L292 170Q355 130 383 98Q415 135 415 186Z" />
<glyph unicode="&#xa8;" glyph-name="dieresis" horiz-adv-x="300" d="M82 610T70 621T58 651Q58 670 70 681T100 693Q118 693 130 681T143 651Q143 633 131 622T100 610Q82 610 70 621ZM248 610T236 621T223 651Q223 669 235 681T266 693Q284 693 296 681T308
651Q308 633 296 622T266 610Q248 610 236 621Z" />
<glyph unicode="&#xa9;" glyph-name="copyright" horiz-adv-x="815" d="M317 -5T235 42T106 171T59 353Q59 453 106 534T235 663T417 710Q517 710 598 663T727 535T774 353Q774 253 727 172T598 43T417 -5Q317 -5 235 42ZM505 35T577 77T690 192T732 353Q732 441
691 513T577 628T417 670Q328 670 256 628T143 514T101 353Q101 265 142 192T256 77T417 35Q505 35 577 77ZM332 137T278 195T224 353Q224 453 278 510T422 568Q496 568 559 520Q570 511 570 497Q570 487 565 480T551 472Q544 472 532 479Q500 501 478 510T424
520Q357 520 321 477T285 353Q285 272 321 229T424 185Q456 185 478 194T532 226Q544 233 551 233Q560 233 565 226T570 208Q570 195 559 185Q535 161 499 149T422 137Q332 137 278 195Z" />
<glyph unicode="&#xaa;" glyph-name="ordfeminine" horiz-adv-x="328" d="M253 710T281 684T309 608L308 593L295 435Q294 422 287 415T268 408Q256 408 248 415T240 435L242 457Q228 434 205 421T153 408Q110 408 82 432T54 494Q54 542 94 562T232 582H252L253
600Q257 666 195 666Q151 666 104 638Q98 635 93 635Q86 635 81 641T75 655Q75 669 89 679Q109 693 140 701T201 710Q253 710 281 684ZM198 451T221 473T248 533L249 549H232Q163 549 137 538T110 497Q110 477 125 464T163 451Q198 451 221 473Z" />
<glyph unicode="&#xab;" glyph-name="guillemotleft" horiz-adv-x="416" d="M63 246Q58 256 58 263Q58 273 66 284L158 424Q168 439 185 439Q195 439 202 434T209 419Q209 412 205 405L122 265L181 125Q183 121 183 114Q183 105 176 99T158 92Q141 92 133 107L63
246ZM232 246Q227 256 227 263Q227 273 235 284L327 424Q337 439 354 439Q364 439 371 434T378 419Q378 412 374 405L291 265L350 125Q352 121 352 114Q352 105 345 99T327 92Q310 92 302 107L232 246Z" />
<glyph unicode="&#xac;" glyph-name="logicalnot" horiz-adv-x="600" d="M501 154T496 161T491 180L505 364H93Q82 364 75 372T68 391Q68 401 76 407T96 414H531Q542 414 549 406T556 387L539 180Q538 169 530 162T510 154Q501 154 496 161Z" />
<glyph unicode="&#xad;" glyph-name="uni00AD" horiz-adv-x="421" d="M85 240T78 247T71 265Q71 277 79 284T100 292H326Q340 292 347 285T354 265Q354 254 346 247T324 240H99Q85 240 78 247Z" />
<glyph unicode="&#xae;" glyph-name="registered" horiz-adv-x="815" d="M517 710T598 663T727 535T774 353Q774 253 727 172T598 43T417 -5Q317 -5 236 42T107 171T59 353Q59 453 106 534T235 663T417 710Q517 710 598 663ZM505 35T577 77T690 191T732 353Q732
442 691 514T577 628T417 670Q329 670 257 629T143 515T101 353Q101 264 142 192T256 77T417 35Q505 35 577 77ZM593 395T562 362T474 322Q501 312 522 277L578 174Q582 167 582 160Q582 150 574 143T554 136Q536 136 526 153L458 276Q445 299 430 307T388 316H328L317
166Q316 152 308 145T286 137Q273 137 266 144T259 166L288 535Q290 548 298 555T319 563H450Q593 563 593 447Q593 395 562 362ZM535 364T535 445Q535 484 513 500T442 516H344L331 364H442Q535 364 535 445Z" />
<glyph unicode="&#xaf;" glyph-name="overscore" horiz-adv-x="300" d="M30 626T30 651Q30 664 39 670T63 677H306Q336 677 336 652Q336 639 327 633T303 626H60Q30 626 30 651Z" />
<glyph unicode="&#xb0;" glyph-name="degree" horiz-adv-x="364" d="M168 423T136 441T84 493T65 566Q65 607 84 640T135 691T208 710Q269 710 310 669T351 566Q351 505 310 464T208 423Q168 423 136 441ZM249 469T275 496T301 566Q301 609 275 636T208 664Q167
664 141 637T115 566Q115 523 141 496T208 469Q249 469 275 496Z" />
<glyph unicode="&#xb1;" glyph-name="plusminus" horiz-adv-x="600" d="M536 348T543 340T550 321Q549 311 541 305T522 298H329L317 146Q316 135 308 127T288 118Q278 118 272 126T267 145L279 298H88Q78 298 71 305T63 323Q63 334 71 341T91 348H284L296 501Q297
512 305 520T325 528Q335 528 341 520T346 501L334 348H525Q536 348 543 340ZM512 51T519 43T526 24Q526 14 518 7T499 0H64Q53 0 46 8T39 27Q39 37 47 44T66 51H501Q512 51 519 43Z" />
<glyph unicode="&#xb2;" glyph-name="uni00B2" horiz-adv-x="380" d="M342 330T342 306Q342 295 335 289T314 282H80Q69 282 62 289T55 305Q55 317 66 330L221 486Q255 521 270 546T285 599Q285 629 267 645T216 661Q163 661 110 621Q101 615 94 615Q85 615 80
621T74 638Q74 652 86 662Q112 683 148 696T220 709Q278 709 310 680T343 602Q343 566 324 532T263 456L135 330H316Q342 330 342 306Z" />
<glyph unicode="&#xb3;" glyph-name="uni00B3" horiz-adv-x="380" d="M300 488T318 464T336 404Q336 345 297 312T191 279Q154 279 116 292T54 326Q44 335 44 348Q44 358 50 365T67 373Q75 373 83 368Q136 327 187 327Q230 327 255 346T280 403Q280 440 258 456T193
473H162Q150 473 144 479T138 494Q138 505 144 512T163 520H187Q233 520 259 540T286 601Q286 630 267 645T215 661Q190 661 165 651T109 621Q100 615 93 615Q84 615 79 622T73 638Q73 652 85 661Q112 682 149 695T221 709Q278 709 310 681T343 609Q343 568 323
540T267 498Q300 488 318 464Z" />
<glyph unicode="&#xb4;" glyph-name="acute" horiz-adv-x="300" d="M187 545T179 545Q172 545 167 550T162 563Q162 571 167 577L305 742Q317 757 333 757Q346 757 356 748T366 726Q366 713 353 701L194 552Q187 545 179 545Z" />
<glyph unicode="&#xb5;" glyph-name="uni00B5" horiz-adv-x="553" d="M475 495T483 488T490 464L455 23Q454 9 445 2T422 -5Q409 -5 402 2T395 23L400 85Q375 41 333 17T238 -7Q162 -7 122 31L107 -157Q106 -170 96 -177T74 -185Q60 -185 53 -178T46 -157L95 464Q96
480 105 487T128 495Q141 495 149 488T156 464L134 188Q133 180 133 164Q133 47 246 47Q317 47 359 90T409 210L429 464Q430 480 439 487T462 495Q475 495 483 488Z" />
<glyph unicode="&#xb6;" glyph-name="paragraph" horiz-adv-x="569" d="M224 -185T217 -177T210 -155L247 323Q167 325 118 373T69 500Q69 591 124 648T279 705H485Q498 705 505 697T512 675L446 -155Q444 -168 436 -176T415 -185Q403 -185 396 -177T389 -155L453
652H331L267 -155Q265 -168 257 -176T236 -185Q224 -185 217 -177Z" />
<glyph unicode="&#xb7;" glyph-name="middot" horiz-adv-x="220" d="M93 217T80 230T66 265Q66 287 79 300T113 313Q132 313 145 300T159 265Q159 244 146 231T113 217Q93 217 80 230Z" />
<glyph unicode="&#xb8;" glyph-name="cedilla" horiz-adv-x="300" d="M199 -41T218 -59T238 -108Q238 -146 208 -168T125 -191Q85 -191 53 -179Q38 -174 38 -159Q38 -150 44 -144T61 -138Q66 -138 69 -139Q99 -148 126 -148Q156 -148 171 -138T187 -110Q187 -96
178 -89T152 -81Q137 -81 123 -86T105 -91Q97 -91 92 -85T87 -72L105 20H155L142 -44Q154 -41 167 -41Q199 -41 218 -59Z" />
<glyph unicode="&#xb9;" glyph-name="uni00B9" horiz-adv-x="380" d="M328 330T328 306Q328 282 299 282H138Q113 282 113 306Q113 330 139 330H194L219 638L161 603Q156 599 148 599Q138 599 131 606T124 624Q124 638 140 648L227 701Q238 708 252 708Q264 708
271 701T278 679L250 330H301Q328 330 328 306Z" />
<glyph unicode="&#xba;" glyph-name="ordmasculine" horiz-adv-x="333" d="M121 408T85 446T48 546Q48 619 89 664T201 710Q262 710 298 673T335 573Q335 498 293 453T181 408Q121 408 85 446ZM227 454T252 485T277 572Q277 616 257 640T199 664Q154 664 130 633T105
546Q105 501 125 478T182 454Q227 454 252 485Z" />
<glyph unicode="&#xbb;" glyph-name="guillemotright" horiz-adv-x="416" d="M82 91T64 91Q54 91 48 96T41 111Q41 118 45 125L130 265L70 405Q68 409 68 416Q68 426 75 432T93 439Q110 439 117 424L188 284Q193 274 193 266Q193 256 186 246L92 107Q82 91 64
91ZM251 91T233 91Q223 91 217 96T210 111Q210 118 214 125L299 265L239 405Q237 409 237 416Q237 426 244 432T262 439Q279 439 286 424L357 284Q362 274 362 266Q362 256 355 246L261 107Q251 91 233 91Z" />
<glyph unicode="&#xbc;" glyph-name="onequarter" horiz-adv-x="926" d="M328 330T328 306Q328 282 299 282H138Q113 282 113 306Q113 330 139 330H194L219 638L161 603Q156 599 148 599Q138 599 131 606T124 624Q124 638 140 648L227 701Q238 708 252 708Q264
708 271 701T278 679L250 330H301Q328 330 328 306ZM261 -18T245 -18Q234 -18 227 -11T219 6Q219 15 226 25L672 707Q682 723 699 723Q710 723 717 716T725 699Q725 690 718 680L271 -2Q261 -18 245 -18ZM881 136T887 130T894 113Q894 102 886 96T865 89H824L819
25Q818 12 810 5T789 -3Q775 -3 768 4T763 25L768 89H595Q583 89 577 95T570 112Q570 123 579 135L796 414Q805 426 821 426Q833 426 841 419T849 397L828 136H868Q881 136 887 130ZM635 136H772L787 332L635 136Z" />
<glyph unicode="&#xbd;" glyph-name="onehalf" horiz-adv-x="926" d="M328 330T328 306Q328 282 299 282H138Q113 282 113 306Q113 330 139 330H194L219 638L161 603Q156 599 148 599Q138 599 131 606T124 624Q124 638 140 648L227 701Q238 708 252 708Q264 708
271 701T278 679L250 330H301Q328 330 328 306ZM261 -18T245 -18Q234 -18 227 -11T219 6Q219 15 226 25L672 707Q682 723 699 723Q710 723 717 716T725 699Q725 690 718 680L271 -2Q261 -18 245 -18ZM866 48T866 24Q866 13 859 7T838 0H604Q593 0 586 7T579 23Q579
35 590 48L745 204Q779 239 794 264T809 317Q809 347 791 363T740 379Q687 379 634 339Q625 333 618 333Q609 333 604 339T598 356Q598 370 610 380Q636 401 672 414T744 427Q802 427 834 398T867 320Q867 284 848 250T787 174L659 48H840Q866 48 866 24Z" />
<glyph unicode="&#xbe;" glyph-name="threequarters" horiz-adv-x="926" d="M300 488T318 464T336 404Q336 345 297 312T191 279Q154 279 116 292T54 326Q44 335 44 348Q44 358 50 365T67 373Q75 373 83 368Q136 327 187 327Q230 327 255 346T280 403Q280 440
258 456T193 473H162Q150 473 144 479T138 494Q138 505 144 512T163 520H187Q233 520 259 540T286 601Q286 630 267 645T215 661Q190 661 165 651T109 621Q100 615 93 615Q84 615 79 622T73 638Q73 652 85 661Q112 682 149 695T221 709Q278 709 310 681T343 609Q343
568 323 540T267 498Q300 488 318 464ZM261 -18T245 -18Q234 -18 227 -11T219 6Q219 15 226 25L672 707Q682 723 699 723Q710 723 717 716T725 699Q725 690 718 680L271 -2Q261 -18 245 -18ZM881 136T887 130T894 113Q894 102 886 96T865 89H824L819 25Q818 12
810 5T789 -3Q775 -3 768 4T763 25L768 89H595Q583 89 577 95T570 112Q570 123 579 135L796 414Q805 426 821 426Q833 426 841 419T849 397L828 136H868Q881 136 887 130ZM635 136H772L787 332L635 136Z" />
<glyph unicode="&#xbf;" glyph-name="questiondown" horiz-adv-x="436" d="M230 400T217 413T204 447Q204 468 217 481T250 495Q271 495 284 482T297 447Q297 427 284 414T250 400Q230 400 217 413ZM102 -187T54 -148T6 -47Q6 -9 19 21T52 73T106 129Q154 173
182 211T220 304Q221 312 226 317T240 322Q259 322 257 300Q254 255 239 220T203 161T150 103Q108 60 89 30T69 -41Q69 -83 100 -108T186 -133Q234 -133 279 -115T374 -58Q384 -51 393 -51Q402 -51 408 -58T414 -75Q414 -91 399 -104Q355 -143 299 -165T184 -187Q102
-187 54 -148Z" />
<glyph unicode="&#xc0;" glyph-name="Agrave" horiz-adv-x="720" d="M668 32T668 24Q668 11 659 3T638 -6Q629 -6 622 0T610 17L549 188H166L77 13Q69 -5 50 -5Q38 -5 30 3T21 23Q21 31 25 39L359 686Q371 710 396 710Q408 710 418 703T433 682L666 36Q668 32
668 24ZM193 242H530L391 630L193 242ZM293 876Q285 887 285 898Q285 909 293 916T312 924Q330 924 341 905L409 788Q412 782 412 777Q412 770 407 765T394 760Q384 760 376 769L293 876Z" />
<glyph unicode="&#xc1;" glyph-name="Aacute" horiz-adv-x="720" d="M668 32T668 24Q668 11 659 3T638 -6Q629 -6 622 0T610 17L549 188H166L77 13Q69 -5 50 -5Q38 -5 30 3T21 23Q21 31 25 39L359 686Q371 710 396 710Q408 710 418 703T433 682L666 36Q668 32
668 24ZM193 242H530L391 630L193 242ZM418 760T408 760Q401 760 397 764T392 776Q392 782 397 790L479 904Q494 923 510 923Q521 923 529 916T537 897Q537 883 524 870L427 769Q418 760 408 760Z" />
<glyph unicode="&#xc2;" glyph-name="Acircumflex" horiz-adv-x="720" d="M668 32T668 24Q668 11 659 3T638 -6Q629 -6 622 0T610 17L549 188H166L77 13Q69 -5 50 -5Q38 -5 30 3T21 23Q21 31 25 39L359 686Q371 710 396 710Q408 710 418 703T433 682L666 36Q668
32 668 24ZM193 242H530L391 630L193 242ZM321 758T308 758Q297 758 289 766T281 784Q281 794 288 801L380 905Q395 922 415 922Q434 922 446 905L518 804Q525 794 525 785Q525 775 518 768T499 760Q483 760 473 777L412 873L330 770Q321 758 308 758Z" />
<glyph unicode="&#xc3;" glyph-name="Atilde" horiz-adv-x="720" d="M668 32T668 24Q668 11 659 3T638 -6Q629 -6 622 0T610 17L549 188H166L77 13Q69 -5 50 -5Q38 -5 30 3T21 23Q21 31 25 39L359 686Q371 710 396 710Q408 710 418 703T433 682L666 36Q668 32
668 24ZM193 242H530L391 630L193 242ZM444 792T396 818Q381 826 366 832T339 838Q320 838 310 831T288 809Q277 795 269 795Q261 795 257 801T252 816Q252 832 264 849T296 879T343 891Q372 891 420 865Q435 857 450 851T477 845Q496 845 506 852T528 874Q532
880 536 884T546 889Q554 889 559 883T564 868Q564 852 552 834T519 804T473 792Q444 792 396 818Z" />
<glyph unicode="&#xc4;" glyph-name="Adieresis" horiz-adv-x="720" d="M668 32T668 24Q668 11 659 3T638 -6Q629 -6 622 0T610 17L549 188H166L77 13Q69 -5 50 -5Q38 -5 30 3T21 23Q21 31 25 39L359 686Q371 710 396 710Q408 710 418 703T433 682L666 36Q668
32 668 24ZM193 242H530L391 630L193 242ZM307 800T295 811T283 841Q283 859 295 870T325 882Q343 882 355 871T368 841Q368 823 356 812T325 800Q307 800 295 811ZM473 800T461 811T448 841Q448 859 460 870T491 882Q509 882 521 871T533 841Q533 823 521 812T491
800Q473 800 461 811Z" />
<glyph unicode="&#xc5;" glyph-name="Aring" horiz-adv-x="720" d="M668 32T668 24Q668 11 659 3T638 -6Q629 -6 622 0T610 17L549 188H166L77 13Q69 -5 50 -5Q38 -5 30 3T21 23Q21 31 25 39L357 684Q332 695 317 718T301 771Q301 812 329 840T399 868Q440 868
469 840T498 771Q498 740 480 716T433 681L666 36Q668 32 668 24ZM378 823T364 808T350 771Q350 750 364 735T399 720Q420 720 434 735T449 771Q449 793 435 808T399 823Q378 823 364 808ZM193 242H530L391 630L193 242Z" />
<glyph unicode="&#xc6;" glyph-name="AE" horiz-adv-x="989" d="M961 705T968 698T976 678Q976 666 969 659T948 651H527L563 385H904Q916 385 923 378T931 358Q931 346 924 339T903 331H570L607 54H897Q910 54 917 47T925 27Q925 15 917 8T896 0H586Q572 0 563
7T553 27L532 188H183L64 11Q53 -6 36 -6Q25 -6 17 1T8 21Q8 31 15 41L453 685Q467 705 491 705H948Q961 705 968 698ZM219 242H525L475 623L219 242Z" />
<glyph unicode="&#xc7;" glyph-name="Ccedilla" horiz-adv-x="677" d="M662 613T662 600Q662 588 655 580T636 571Q626 571 617 579Q574 620 524 639T403 658Q320 658 260 618T168 501T136 321Q136 190 199 119T378 47Q433 47 484 66T578 123Q589 133 600 133Q610
133 616 126T622 107Q622 93 611 83Q517 -4 379 -8L371 -44Q383 -41 396 -41Q428 -41 447 -59T467 -108Q467 -146 437 -168T354 -191Q314 -191 282 -179Q267 -174 267 -159Q267 -150 273 -144T290 -138Q295 -138 298 -139Q328 -148 355 -148Q385 -148 400 -138T416
-110Q416 -96 407 -89T381 -81Q366 -81 352 -86T334 -91Q326 -91 321 -85T316 -72L329 -6Q210 6 141 92T72 322Q72 440 112 528T228 665T405 713Q482 713 545 690T652 623Q662 613 662 600Z" />
<glyph unicode="&#xc8;" glyph-name="Egrave" horiz-adv-x="579" d="M551 705T558 698T566 679Q566 667 559 660T538 652H185L164 385H494Q506 385 513 378T521 358Q521 346 514 339T493 331H160L138 53H488Q500 53 507 46T515 27Q515 15 508 8T487 0H105Q89 0
82 8T75 33L125 675Q127 705 158 705H539Q551 705 558 698ZM255 876Q247 887 247 898Q247 909 255 916T274 924Q292 924 303 905L371 788Q374 782 374 777Q374 770 369 765T356 760Q346 760 338 769L255 876Z" />
<glyph unicode="&#xc9;" glyph-name="Eacute" horiz-adv-x="579" d="M551 705T558 698T566 679Q566 667 559 660T538 652H185L164 385H494Q506 385 513 378T521 358Q521 346 514 339T493 331H160L138 53H488Q500 53 507 46T515 27Q515 15 508 8T487 0H105Q89 0
82 8T75 33L125 675Q127 705 158 705H539Q551 705 558 698ZM380 760T370 760Q363 760 359 764T354 776Q354 782 359 790L441 904Q456 923 472 923Q483 923 491 916T499 897Q499 883 486 870L389 769Q380 760 370 760Z" />
<glyph unicode="&#xca;" glyph-name="Ecircumflex" horiz-adv-x="579" d="M551 705T558 698T566 679Q566 667 559 660T538 652H185L164 385H494Q506 385 513 378T521 358Q521 346 514 339T493 331H160L138 53H488Q500 53 507 46T515 27Q515 15 508 8T487 0H105Q89
0 82 8T75 33L125 675Q127 705 158 705H539Q551 705 558 698ZM283 758T270 758Q259 758 251 766T243 784Q243 794 250 801L342 905Q357 922 377 922Q396 922 408 905L480 804Q487 794 487 785Q487 775 480 768T461 760Q445 760 435 777L374 873L292 770Q283 758
270 758Z" />
<glyph unicode="&#xcb;" glyph-name="Edieresis" horiz-adv-x="579" d="M551 705T558 698T566 679Q566 667 559 660T538 652H185L164 385H494Q506 385 513 378T521 358Q521 346 514 339T493 331H160L138 53H488Q500 53 507 46T515 27Q515 15 508 8T487 0H105Q89
0 82 8T75 33L125 675Q127 705 158 705H539Q551 705 558 698ZM269 800T257 811T245 841Q245 859 257 870T287 882Q305 882 317 871T330 841Q330 823 318 812T287 800Q269 800 257 811ZM435 800T423 811T410 841Q410 859 422 870T453 882Q471 882 483 871T495 841Q495
823 483 812T453 800Q435 800 423 811Z" />
<glyph unicode="&#xcc;" glyph-name="Igrave" horiz-adv-x="244" d="M92 -5T83 4T75 27L126 681Q127 694 136 702T157 710Q171 710 179 702T187 678L136 24Q135 10 127 3T105 -5Q92 -5 83 4ZM55 876Q47 887 47 898Q47 909 55 916T74 924Q92 924 103 905L171 788Q174
782 174 777Q174 770 169 765T156 760Q146 760 138 769L55 876Z" />
<glyph unicode="&#xcd;" glyph-name="Iacute" horiz-adv-x="244" d="M92 -5T83 4T75 27L126 681Q127 694 136 702T157 710Q171 710 179 702T187 678L136 24Q135 10 127 3T105 -5Q92 -5 83 4ZM180 760T170 760Q163 760 159 764T154 776Q154 782 159 790L241 904Q256
923 272 923Q283 923 291 916T299 897Q299 883 286 870L189 769Q180 760 170 760Z" />
<glyph unicode="&#xce;" glyph-name="Icircumflex" horiz-adv-x="244" d="M92 -5T83 4T75 27L126 681Q127 694 136 702T157 710Q171 710 179 702T187 678L136 24Q135 10 127 3T105 -5Q92 -5 83 4ZM83 758T70 758Q59 758 51 766T43 784Q43 794 50 801L142 905Q157
922 177 922Q196 922 208 905L280 804Q287 794 287 785Q287 775 280 768T261 760Q245 760 235 777L174 873L92 770Q83 758 70 758Z" />
<glyph unicode="&#xcf;" glyph-name="Idieresis" horiz-adv-x="244" d="M92 -5T83 4T75 27L126 681Q127 694 136 702T157 710Q171 710 179 702T187 678L136 24Q135 10 127 3T105 -5Q92 -5 83 4ZM69 800T57 811T45 841Q45 859 57 870T87 882Q105 882 117 871T130
841Q130 823 118 812T87 800Q69 800 57 811ZM235 800T223 811T210 841Q210 859 222 870T253 882Q271 882 283 871T295 841Q295 823 283 812T253 800Q235 800 223 811Z" />
<glyph unicode="&#xd0;" glyph-name="Eth" horiz-adv-x="740" d="M516 705T600 621T685 383Q685 264 644 178T524 46T333 0H118Q102 0 93 10T84 37L107 332H40Q25 332 17 339T9 358Q9 369 17 376T39 383H111L134 674Q135 688 144 696T167 705H358Q516 705 600
621ZM474 54T547 139T621 384Q621 651 355 651H194L173 383H340Q370 383 370 358Q370 346 363 339T341 332H169L147 54H331Q474 54 547 139Z" />
<glyph unicode="&#xd1;" glyph-name="Ntilde" horiz-adv-x="735" d="M663 710T671 701T679 679L627 25Q625 -5 599 -5Q582 -5 569 12L178 603L131 23Q130 10 122 3T102 -5Q90 -5 82 4T74 27L125 679Q126 694 134 702T156 710Q174 710 184 693L575 106L621 682Q622
695 630 702T651 710Q663 710 671 701ZM452 792T404 818Q389 826 374 832T347 838Q328 838 318 831T296 809Q285 795 277 795Q269 795 265 801T260 816Q260 832 272 849T304 879T351 891Q380 891 428 865Q443 857 458 851T485 845Q504 845 514 852T536 874Q540
880 544 884T554 889Q562 889 567 883T572 868Q572 852 560 834T527 804T481 792Q452 792 404 818Z" />
<glyph unicode="&#xd2;" glyph-name="Ograve" horiz-adv-x="757" d="M284 -8T215 31T109 145T72 322Q72 440 112 528T225 665T395 713Q490 713 559 674T665 560T702 383Q702 265 663 177T550 40T378 -8Q284 -8 215 31ZM459 48T517 88T607 203T638 383Q638 516
575 586T395 657Q315 657 257 617T167 501T136 321Q136 189 199 119T379 48Q459 48 517 88ZM311 876Q303 887 303 898Q303 909 311 916T330 924Q348 924 359 905L427 788Q430 782 430 777Q430 770 425 765T412 760Q402 760 394 769L311 876Z" />
<glyph unicode="&#xd3;" glyph-name="Oacute" horiz-adv-x="757" d="M284 -8T215 31T109 145T72 322Q72 440 112 528T225 665T395 713Q490 713 559 674T665 560T702 383Q702 265 663 177T550 40T378 -8Q284 -8 215 31ZM459 48T517 88T607 203T638 383Q638 516
575 586T395 657Q315 657 257 617T167 501T136 321Q136 189 199 119T379 48Q459 48 517 88ZM436 760T426 760Q419 760 415 764T410 776Q410 782 415 790L497 904Q512 923 528 923Q539 923 547 916T555 897Q555 883 542 870L445 769Q436 760 426 760Z" />
<glyph unicode="&#xd4;" glyph-name="Ocircumflex" horiz-adv-x="757" d="M284 -8T215 31T109 145T72 322Q72 440 112 528T225 665T395 713Q490 713 559 674T665 560T702 383Q702 265 663 177T550 40T378 -8Q284 -8 215 31ZM459 48T517 88T607 203T638 383Q638
516 575 586T395 657Q315 657 257 617T167 501T136 321Q136 189 199 119T379 48Q459 48 517 88ZM339 758T326 758Q315 758 307 766T299 784Q299 794 306 801L398 905Q413 922 433 922Q452 922 464 905L536 804Q543 794 543 785Q543 775 536 768T517 760Q501 760
491 777L430 873L348 770Q339 758 326 758Z" />
<glyph unicode="&#xd5;" glyph-name="Otilde" horiz-adv-x="757" d="M284 -8T215 31T109 145T72 322Q72 440 112 528T225 665T395 713Q490 713 559 674T665 560T702 383Q702 265 663 177T550 40T378 -8Q284 -8 215 31ZM459 48T517 88T607 203T638 383Q638 516
575 586T395 657Q315 657 257 617T167 501T136 321Q136 189 199 119T379 48Q459 48 517 88ZM462 792T414 818Q399 826 384 832T357 838Q338 838 328 831T306 809Q295 795 287 795Q279 795 275 801T270 816Q270 832 282 849T314 879T361 891Q390 891 438 865Q453
857 468 851T495 845Q514 845 524 852T546 874Q550 880 554 884T564 889Q572 889 577 883T582 868Q582 852 570 834T537 804T491 792Q462 792 414 818Z" />
<glyph unicode="&#xd6;" glyph-name="Odieresis" horiz-adv-x="757" d="M284 -8T215 31T109 145T72 322Q72 440 112 528T225 665T395 713Q490 713 559 674T665 560T702 383Q702 265 663 177T550 40T378 -8Q284 -8 215 31ZM459 48T517 88T607 203T638 383Q638 516
575 586T395 657Q315 657 257 617T167 501T136 321Q136 189 199 119T379 48Q459 48 517 88ZM325 800T313 811T301 841Q301 859 313 870T343 882Q361 882 373 871T386 841Q386 823 374 812T343 800Q325 800 313 811ZM491 800T479 811T466 841Q466 859 478 870T509
882Q527 882 539 871T551 841Q551 823 539 812T509 800Q491 800 479 811Z" />
<glyph unicode="&#xd7;" glyph-name="multiply" horiz-adv-x="600" d="M524 495T524 487Q524 476 513 463L338 285L504 105Q511 96 511 88Q511 75 500 66Q494 60 485 60Q475 60 465 70L301 248L126 70Q119 61 105 61Q93 61 88 69Q83 74 83 82Q83 94 94 105L269
283L103 463Q96 470 96 481Q96 492 105 501Q112 508 122 508Q135 508 142 499L306 321L481 499Q488 508 500 508Q513 508 520 499Q524 495 524 487Z" />
<glyph unicode="&#xd8;" glyph-name="Oslash" horiz-adv-x="757" d="M654 594T678 530T702 383Q702 265 663 177T550 40T378 -8Q280 -8 208 35L171 -21Q161 -35 147 -35Q137 -35 130 -28T122 -10Q122 -1 128 8L167 67Q121 109 97 174T72 322Q72 440 112 528T225
665T395 713Q496 713 567 669L605 726Q615 740 629 740Q640 740 647 733T655 715Q655 706 649 697L609 637Q654 594 678 530ZM136 187T200 117L535 621Q480 657 395 657Q315 657 257 617T167 501T136 321Q136 187 200 117ZM459 48T517 88T607 203T638 383Q638 515
575 586L241 83Q297 48 379 48Q459 48 517 88Z" />
<glyph unicode="&#xd9;" glyph-name="Ugrave" horiz-adv-x="720" d="M218 -8T153 54T87 234Q87 246 89 272L121 681Q122 694 131 702T152 710Q165 710 174 701T182 678L150 275Q149 263 149 241Q149 47 345 47Q452 47 508 100T574 264L607 681Q608 694 616 702T638
710Q651 710 660 702T668 678L635 271Q624 131 551 62T345 -8Q218 -8 153 54ZM293 876Q285 887 285 898Q285 909 293 916T312 924Q330 924 341 905L409 788Q412 782 412 777Q412 770 407 765T394 760Q384 760 376 769L293 876Z" />
<glyph unicode="&#xda;" glyph-name="Uacute" horiz-adv-x="720" d="M218 -8T153 54T87 234Q87 246 89 272L121 681Q122 694 131 702T152 710Q165 710 174 701T182 678L150 275Q149 263 149 241Q149 47 345 47Q452 47 508 100T574 264L607 681Q608 694 616 702T638
710Q651 710 660 702T668 678L635 271Q624 131 551 62T345 -8Q218 -8 153 54ZM418 760T408 760Q401 760 397 764T392 776Q392 782 397 790L479 904Q494 923 510 923Q521 923 529 916T537 897Q537 883 524 870L427 769Q418 760 408 760Z" />
<glyph unicode="&#xdb;" glyph-name="Ucircumflex" horiz-adv-x="720" d="M218 -8T153 54T87 234Q87 246 89 272L121 681Q122 694 131 702T152 710Q165 710 174 701T182 678L150 275Q149 263 149 241Q149 47 345 47Q452 47 508 100T574 264L607 681Q608 694 616
702T638 710Q651 710 660 702T668 678L635 271Q624 131 551 62T345 -8Q218 -8 153 54ZM321 758T308 758Q297 758 289 766T281 784Q281 794 288 801L380 905Q395 922 415 922Q434 922 446 905L518 804Q525 794 525 785Q525 775 518 768T499 760Q483 760 473 777L412
873L330 770Q321 758 308 758Z" />
<glyph unicode="&#xdc;" glyph-name="Udieresis" horiz-adv-x="720" d="M218 -8T153 54T87 234Q87 246 89 272L121 681Q122 694 131 702T152 710Q165 710 174 701T182 678L150 275Q149 263 149 241Q149 47 345 47Q452 47 508 100T574 264L607 681Q608 694 616
702T638 710Q651 710 660 702T668 678L635 271Q624 131 551 62T345 -8Q218 -8 153 54ZM307 800T295 811T283 841Q283 859 295 870T325 882Q343 882 355 871T368 841Q368 823 356 812T325 800Q307 800 295 811ZM473 800T461 811T448 841Q448 859 460 870T491 882Q509
882 521 871T533 841Q533 823 521 812T491 800Q473 800 461 811Z" />
<glyph unicode="&#xdd;" glyph-name="Yacute" horiz-adv-x="591" d="M570 710T587 710Q598 710 605 703T612 685Q612 673 604 664L333 337L309 24Q308 11 299 3T278 -5Q265 -5 256 4T247 27L272 337L52 664Q45 674 45 683Q45 695 54 702T75 709Q91 709 100 696L305
390L556 693Q570 710 587 710ZM353 760T343 760Q336 760 332 764T327 776Q327 782 332 790L414 904Q429 923 445 923Q456 923 464 916T472 897Q472 883 459 870L362 769Q353 760 343 760Z" />
<glyph unicode="&#xde;" glyph-name="Thorn" horiz-adv-x="638" d="M489 546T544 501T599 369Q599 276 539 224T365 171H147L136 24Q135 11 126 3T105 -5Q92 -5 83 4T75 27L126 681Q127 694 136 702T157 710Q170 710 179 702T187 678L177 546H387Q489 546 544
501ZM452 224T494 260T537 368Q537 433 499 463T384 493H173L152 224H362Q452 224 494 260Z" />
<glyph unicode="&#xdf;" glyph-name="germandbls" horiz-adv-x="598" d="M328 -7T282 8T207 48Q194 58 194 74Q194 85 201 93T218 102Q226 102 235 96Q271 70 305 58T378 46Q431 46 463 70T495 136Q495 169 469 187T389 223Q346 239 319 252T274 289T255 350Q255
391 276 418T342 482Q380 513 398 535T417 589Q417 621 392 639T322 657Q248 657 208 616T161 489L124 26Q122 12 113 4T91 -5Q76 -5 69 3T63 26L100 492Q108 595 166 652T323 709Q394 709 435 678T476 593Q476 548 452 517T384 450Q350 422 334 403T318 360Q318
328 343 310T421 273Q464 257 491 243T537 203T556 139Q556 73 506 33T375 -7Q328 -7 282 8Z" />
<glyph unicode="&#xe0;" glyph-name="agrave" horiz-adv-x="526" d="M454 497T454 337Q454 321 453 312L431 23Q430 10 422 3T401 -5Q387 -5 379 4T371 27L375 83Q353 40 313 17T221 -7Q148 -7 102 32T56 132Q56 187 85 219T180 265T355 280H390L393 314Q394 322
394 336Q394 392 368 418T286 444Q208 444 122 390Q115 386 109 386Q99 386 93 394T86 413Q86 430 101 440Q137 466 188 481T288 497Q454 497 454 337ZM293 46T336 88T384 199L387 235H358Q266 235 215 226T142 196T120 136Q120 95 150 71T231 46Q293 46 336 88ZM184
709Q178 720 178 729Q178 742 187 750T208 759Q229 759 239 736L309 572Q311 568 311 562Q311 554 306 550T292 545Q279 545 272 556L184 709Z" />
<glyph unicode="&#xe1;" glyph-name="aacute" horiz-adv-x="526" d="M454 497T454 337Q454 321 453 312L431 23Q430 10 422 3T401 -5Q387 -5 379 4T371 27L375 83Q353 40 313 17T221 -7Q148 -7 102 32T56 132Q56 187 85 219T180 265T355 280H390L393 314Q394 322
394 336Q394 392 368 418T286 444Q208 444 122 390Q115 386 109 386Q99 386 93 394T86 413Q86 430 101 440Q137 466 188 481T288 497Q454 497 454 337ZM293 46T336 88T384 199L387 235H358Q266 235 215 226T142 196T120 136Q120 95 150 71T231 46Q293 46 336 88ZM309
545T301 545Q294 545 289 550T284 563Q284 571 289 577L427 742Q439 757 455 757Q468 757 478 748T488 726Q488 713 475 701L316 552Q309 545 301 545Z" />
<glyph unicode="&#xe2;" glyph-name="acircumflex" horiz-adv-x="526" d="M454 497T454 337Q454 321 453 312L431 23Q430 10 422 3T401 -5Q387 -5 379 4T371 27L375 83Q353 40 313 17T221 -7Q148 -7 102 32T56 132Q56 187 85 219T180 265T355 280H390L393 314Q394
322 394 336Q394 392 368 418T286 444Q208 444 122 390Q115 386 109 386Q99 386 93 394T86 413Q86 430 101 440Q137 466 188 481T288 497Q454 497 454 337ZM293 46T336 88T384 199L387 235H358Q266 235 215 226T142 196T120 136Q120 95 150 71T231 46Q293 46 336
88ZM223 553T216 549T203 545Q192 545 185 552T177 571Q177 580 183 589L278 734Q293 756 313 756Q334 756 344 734L416 588Q419 581 419 574Q419 562 410 554T390 545Q375 545 368 561L309 701L227 561Q223 553 216 549Z" />
<glyph unicode="&#xe3;" glyph-name="atilde" horiz-adv-x="526" d="M454 497T454 337Q454 321 453 312L431 23Q430 10 422 3T401 -5Q387 -5 379 4T371 27L375 83Q353 40 313 17T221 -7Q148 -7 102 32T56 132Q56 187 85 219T180 265T355 280H390L393 314Q394 322
394 336Q394 392 368 418T286 444Q208 444 122 390Q115 386 109 386Q99 386 93 394T86 413Q86 430 101 440Q137 466 188 481T288 497Q454 497 454 337ZM293 46T336 88T384 199L387 235H358Q266 235 215 226T142 196T120 136Q120 95 150 71T231 46Q293 46 336 88ZM351
593T333 602T293 629Q270 645 259 651T236 657Q219 657 208 648T187 621Q180 610 176 605T165 600Q158 600 153 606T148 621Q148 638 160 659T194 696T240 711Q258 711 276 702T316 675Q339 659 350 653T373 647Q390 647 400 656T423 683Q430 694 434 699T445 704Q452
704 456 698T461 683Q461 666 449 645T415 608T369 593Q351 593 333 602Z" />
<glyph unicode="&#xe4;" glyph-name="adieresis" horiz-adv-x="526" d="M454 497T454 337Q454 321 453 312L431 23Q430 10 422 3T401 -5Q387 -5 379 4T371 27L375 83Q353 40 313 17T221 -7Q148 -7 102 32T56 132Q56 187 85 219T180 265T355 280H390L393 314Q394
322 394 336Q394 392 368 418T286 444Q208 444 122 390Q115 386 109 386Q99 386 93 394T86 413Q86 430 101 440Q137 466 188 481T288 497Q454 497 454 337ZM293 46T336 88T384 199L387 235H358Q266 235 215 226T142 196T120 136Q120 95 150 71T231 46Q293 46 336
88ZM204 610T192 621T180 651Q180 670 192 681T222 693Q240 693 252 681T265 651Q265 633 253 622T222 610Q204 610 192 621ZM370 610T358 621T345 651Q345 669 357 681T388 693Q406 693 418 681T430 651Q430 633 418 622T388 610Q370 610 358 621Z" />
<glyph unicode="&#xe5;" glyph-name="aring" horiz-adv-x="526" d="M454 497T454 337Q454 321 453 312L431 23Q430 10 422 3T401 -5Q387 -5 379 4T371 27L375 83Q353 40 313 17T221 -7Q148 -7 102 32T56 132Q56 187 85 219T180 265T355 280H390L393 314Q394 322
394 336Q394 392 368 418T286 444Q208 444 122 390Q115 386 109 386Q99 386 93 394T86 413Q86 430 101 440Q137 466 188 481T288 497Q454 497 454 337ZM293 46T336 88T384 199L387 235H358Q266 235 215 226T142 196T120 136Q120 95 150 71T231 46Q293 46 336 88ZM263
554T234 582T205 651Q205 691 234 719T304 747Q345 747 374 719T403 651Q403 610 374 582T304 554Q263 554 234 582ZM326 599T340 614T354 651Q354 672 340 687T304 702Q283 702 269 687T255 651Q255 629 269 614T304 599Q326 599 340 614Z" />
<glyph unicode="&#xe6;" glyph-name="ae" horiz-adv-x="857" d="M451 235V225Q451 141 493 94T615 47Q651 47 688 59T754 94Q764 101 773 101Q783 101 789 94T796 76Q796 62 784 51Q757 26 708 10T614 -7Q537 -7 486 28T413 126Q390 64 339 29T221 -7Q148 -7 102
32T56 132Q56 186 85 218T179 265T355 280H393L396 314Q397 323 397 338Q397 393 371 418T288 444Q206 444 122 390Q115 386 108 386Q98 386 92 393T86 412Q86 430 101 440Q137 466 188 481T290 497Q414 497 446 408Q476 451 521 474T623 497Q716 497 765 441T815
273Q815 254 806 245T781 235H451ZM554 447T510 404T455 280H759Q762 362 726 404T626 447Q554 447 510 404ZM293 46T337 91T388 208L390 235H358Q260 235 209 225T139 194T120 136Q120 95 149 71T228 46Q293 46 337 91Z" />
<glyph unicode="&#xe7;" glyph-name="ccedilla" horiz-adv-x="475" d="M205 444T159 386T113 225Q113 142 154 95T272 47Q309 47 339 59T400 96Q409 102 416 102Q426 102 433 94T441 76Q441 65 432 56Q403 27 360 11T270 -7L262 -44Q274 -41 287 -41Q319 -41 338
-59T358 -108Q358 -146 328 -168T245 -191Q205 -191 173 -179Q158 -174 158 -159Q158 -150 164 -144T181 -138Q186 -138 189 -139Q219 -148 246 -148Q276 -148 291 -138T307 -110Q307 -96 298 -89T272 -81Q257 -81 243 -86T225 -91Q217 -91 212 -85T207 -72L220
-3Q141 11 95 72T49 227Q49 308 78 369T161 463T289 497Q339 497 382 482T451 444Q463 433 463 418Q463 406 456 397T438 388Q431 388 423 394Q360 444 288 444Q205 444 159 386Z" />
<glyph unicode="&#xe8;" glyph-name="egrave" horiz-adv-x="526" d="M112 235V225Q112 141 154 94T275 47Q316 47 354 59T422 94Q432 101 441 101Q451 101 457 94T464 76Q464 62 452 51Q425 26 375 10T273 -7Q169 -7 109 56T49 227Q49 307 78 368T161 463T287
497Q383 497 433 441T483 273Q483 254 474 245T449 235H112ZM216 447T172 404T116 280H427Q430 362 393 404T290 447Q216 447 172 404ZM188 709Q182 720 182 729Q182 742 191 750T212 759Q233 759 243 736L313 572Q315 568 315 562Q315 554 310 550T296 545Q283
545 276 556L188 709Z" />
<glyph unicode="&#xe9;" glyph-name="eacute" horiz-adv-x="526" d="M112 235V225Q112 141 154 94T275 47Q316 47 354 59T422 94Q432 101 441 101Q451 101 457 94T464 76Q464 62 452 51Q425 26 375 10T273 -7Q169 -7 109 56T49 227Q49 307 78 368T161 463T287
497Q383 497 433 441T483 273Q483 254 474 245T449 235H112ZM216 447T172 404T116 280H427Q430 362 393 404T290 447Q216 447 172 404ZM313 545T305 545Q298 545 293 550T288 563Q288 571 293 577L431 742Q443 757 459 757Q472 757 482 748T492 726Q492 713 479
701L320 552Q313 545 305 545Z" />
<glyph unicode="&#xea;" glyph-name="ecircumflex" horiz-adv-x="526" d="M112 235V225Q112 141 154 94T275 47Q316 47 354 59T422 94Q432 101 441 101Q451 101 457 94T464 76Q464 62 452 51Q425 26 375 10T273 -7Q169 -7 109 56T49 227Q49 307 78 368T161 463T287
497Q383 497 433 441T483 273Q483 254 474 245T449 235H112ZM216 447T172 404T116 280H427Q430 362 393 404T290 447Q216 447 172 404ZM227 553T220 549T207 545Q196 545 189 552T181 571Q181 580 187 589L282 734Q297 756 317 756Q338 756 348 734L420 588Q423
581 423 574Q423 562 414 554T394 545Q379 545 372 561L313 701L231 561Q227 553 220 549Z" />
<glyph unicode="&#xeb;" glyph-name="edieresis" horiz-adv-x="526" d="M112 235V225Q112 141 154 94T275 47Q316 47 354 59T422 94Q432 101 441 101Q451 101 457 94T464 76Q464 62 452 51Q425 26 375 10T273 -7Q169 -7 109 56T49 227Q49 307 78 368T161 463T287
497Q383 497 433 441T483 273Q483 254 474 245T449 235H112ZM216 447T172 404T116 280H427Q430 362 393 404T290 447Q216 447 172 404ZM208 610T196 621T184 651Q184 670 196 681T226 693Q244 693 256 681T269 651Q269 633 257 622T226 610Q208 610 196 621ZM374
610T362 621T349 651Q349 669 361 681T392 693Q410 693 422 681T434 651Q434 633 422 622T392 610Q374 610 362 621Z" />
<glyph unicode="&#xec;" glyph-name="igrave" horiz-adv-x="222" d="M77 -5T69 2T63 26L98 467Q99 481 108 488T131 495Q144 495 152 488T159 467L124 26Q122 10 113 3T91 -5Q77 -5 69 2ZM23 709Q17 720 17 729Q17 742 26 750T47 759Q68 759 78 736L148 572Q150
568 150 562Q150 554 145 550T131 545Q118 545 111 556L23 709Z" />
<glyph unicode="&#xed;" glyph-name="iacute" horiz-adv-x="222" d="M77 -5T69 2T63 26L98 467Q99 481 108 488T131 495Q144 495 152 488T159 467L124 26Q122 10 113 3T91 -5Q77 -5 69 2ZM148 545T140 545Q133 545 128 550T123 563Q123 571 128 577L266 742Q278
757 294 757Q307 757 317 748T327 726Q327 713 314 701L155 552Q148 545 140 545Z" />
<glyph unicode="&#xee;" glyph-name="icircumflex" horiz-adv-x="222" d="M77 -5T69 2T63 26L98 467Q99 481 108 488T131 495Q144 495 152 488T159 467L124 26Q122 10 113 3T91 -5Q77 -5 69 2ZM62 553T55 549T42 545Q31 545 24 552T16 571Q16 580 22 589L117 734Q132
756 152 756Q173 756 183 734L255 588Q258 581 258 574Q258 562 249 554T229 545Q214 545 207 561L148 701L66 561Q62 553 55 549Z" />
<glyph unicode="&#xef;" glyph-name="idieresis" horiz-adv-x="222" d="M77 -5T69 2T63 26L98 467Q99 481 108 488T131 495Q144 495 152 488T159 467L124 26Q122 10 113 3T91 -5Q77 -5 69 2ZM43 610T31 621T19 651Q19 670 31 681T61 693Q79 693 91 681T104 651Q104
633 92 622T61 610Q43 610 31 621ZM209 610T197 621T184 651Q184 669 196 681T227 693Q245 693 257 681T269 651Q269 633 257 622T227 610Q209 610 197 621Z" />
<glyph unicode="&#xf0;" glyph-name="eth" horiz-adv-x="549" d="M504 666T507 666Q516 666 522 659T528 643Q528 627 513 622L418 586Q505 481 505 322Q505 156 440 75T264 -7Q165 -7 106 51T47 208Q47 281 75 337T156 424T276 455Q336 455 381 430T447 363Q440
483 364 565L219 510Q216 509 211 509Q202 509 196 516T189 533Q189 548 204 553L327 599Q280 636 216 660Q197 667 197 685Q197 695 203 702T220 710Q224 710 230 708Q321 677 384 621L498 664Q504 666 507 666ZM344 47T388 99T433 245Q433 318 392 359T277 401Q199
401 155 349T111 206Q111 129 151 88T267 47Q344 47 388 99Z" />
<glyph unicode="&#xf1;" glyph-name="ntilde" horiz-adv-x="561" d="M402 497T445 456T488 334Q488 316 487 307L466 26Q465 10 456 3T433 -5Q420 -5 412 2T405 26L426 303Q427 311 427 326Q427 443 311 443Q237 443 194 400T144 281L124 26Q122 10 113 3T91 -5Q77
-5 69 2T63 26L98 467Q99 481 108 488T131 495Q144 495 151 488T158 467L153 406Q178 449 221 473T321 497Q402 497 445 456ZM359 593T341 602T301 629Q278 645 267 651T244 657Q227 657 216 648T195 621Q188 610 184 605T173 600Q166 600 161 606T156 621Q156
638 168 659T202 696T248 711Q266 711 284 702T324 675Q347 659 358 653T381 647Q398 647 408 656T431 683Q438 694 442 699T453 704Q460 704 464 698T469 683Q469 666 457 645T423 608T377 593Q359 593 341 602Z" />
<glyph unicode="&#xf2;" glyph-name="ograve" horiz-adv-x="545" d="M201 -7T152 22T76 104T49 227Q49 308 77 369T158 463T279 497Q345 497 394 468T470 386T497 262Q497 182 469 121T388 27T266 -7Q201 -7 152 22ZM346 47T390 105T434 265Q434 350 393 397T279
444Q201 444 157 386T113 224Q113 138 153 93T269 47Q346 47 390 105ZM185 709Q179 720 179 729Q179 742 188 750T209 759Q230 759 240 736L310 572Q312 568 312 562Q312 554 307 550T293 545Q280 545 273 556L185 709Z" />
<glyph unicode="&#xf3;" glyph-name="oacute" horiz-adv-x="545" d="M201 -7T152 22T76 104T49 227Q49 308 77 369T158 463T279 497Q345 497 394 468T470 386T497 262Q497 182 469 121T388 27T266 -7Q201 -7 152 22ZM346 47T390 105T434 265Q434 350 393 397T279
444Q201 444 157 386T113 224Q113 138 153 93T269 47Q346 47 390 105ZM310 545T302 545Q295 545 290 550T285 563Q285 571 290 577L428 742Q440 757 456 757Q469 757 479 748T489 726Q489 713 476 701L317 552Q310 545 302 545Z" />
<glyph unicode="&#xf4;" glyph-name="ocircumflex" horiz-adv-x="545" d="M201 -7T152 22T76 104T49 227Q49 308 77 369T158 463T279 497Q345 497 394 468T470 386T497 262Q497 182 469 121T388 27T266 -7Q201 -7 152 22ZM346 47T390 105T434 265Q434 350 393
397T279 444Q201 444 157 386T113 224Q113 138 153 93T269 47Q346 47 390 105ZM224 553T217 549T204 545Q193 545 186 552T178 571Q178 580 184 589L279 734Q294 756 314 756Q335 756 345 734L417 588Q420 581 420 574Q420 562 411 554T391 545Q376 545 369 561L310
701L228 561Q224 553 217 549Z" />
<glyph unicode="&#xf5;" glyph-name="otilde" horiz-adv-x="545" d="M201 -7T152 22T76 104T49 227Q49 308 77 369T158 463T279 497Q345 497 394 468T470 386T497 262Q497 182 469 121T388 27T266 -7Q201 -7 152 22ZM346 47T390 105T434 265Q434 350 393 397T279
444Q201 444 157 386T113 224Q113 138 153 93T269 47Q346 47 390 105ZM352 593T334 602T294 629Q271 645 260 651T237 657Q220 657 209 648T188 621Q181 610 177 605T166 600Q159 600 154 606T149 621Q149 638 161 659T195 696T241 711Q259 711 277 702T317 675Q340
659 351 653T374 647Q391 647 401 656T424 683Q431 694 435 699T446 704Q453 704 457 698T462 683Q462 666 450 645T416 608T370 593Q352 593 334 602Z" />
<glyph unicode="&#xf6;" glyph-name="odieresis" horiz-adv-x="545" d="M201 -7T152 22T76 104T49 227Q49 308 77 369T158 463T279 497Q345 497 394 468T470 386T497 262Q497 182 469 121T388 27T266 -7Q201 -7 152 22ZM346 47T390 105T434 265Q434 350 393 397T279
444Q201 444 157 386T113 224Q113 138 153 93T269 47Q346 47 390 105ZM205 610T193 621T181 651Q181 670 193 681T223 693Q241 693 253 681T266 651Q266 633 254 622T223 610Q205 610 193 621ZM371 610T359 621T346 651Q346 669 358 681T389 693Q407 693 419 681T431
651Q431 633 419 622T389 610Q371 610 359 621Z" />
<glyph unicode="&#xf7;" glyph-name="divide" horiz-adv-x="600" d="M292 412T280 425T267 458Q267 479 279 491T312 504Q331 504 343 492T356 458Q356 438 343 425T312 412Q292 412 280 425ZM74 258T67 266T60 285Q60 295 68 302T87 309H522Q533 309 540 301T547
282Q547 272 539 265T520 258H85Q74 258 67 266ZM264 64T251 77T238 110Q238 131 251 143T283 156Q302 156 314 144T327 110Q327 90 315 77T283 64Q264 64 251 77Z" />
<glyph unicode="&#xf8;" glyph-name="oslash" horiz-adv-x="545" d="M462 410T479 365T497 262Q497 182 469 121T388 27T266 -7Q203 -7 153 21L126 -20Q118 -34 104 -34Q95 -34 89 -28T82 -12Q82 -3 88 6L116 49Q84 79 67 124T49 227Q49 308 77 369T158 463T279
497Q343 497 393 469L420 510Q430 524 443 524Q452 524 458 518T464 502Q464 493 458 484L430 441Q462 410 479 365ZM112 142T148 98L363 423Q329 444 279 444Q201 444 157 385T112 224Q112 142 148 98ZM346 47T390 105T434 265Q434 346 397 392L183 67Q220 47
269 47Q346 47 390 105Z" />
<glyph unicode="&#xf9;" glyph-name="ugrave" horiz-adv-x="553" d="M475 495T483 488T490 464L455 23Q454 9 445 2T422 -5Q409 -5 402 2T395 23L400 85Q375 41 333 17T237 -7Q157 -7 115 34T72 157Q72 174 73 183L95 464Q96 480 105 487T128 495Q141 495 149
488T156 464L134 188Q133 180 133 164Q133 47 246 47Q317 47 360 90T409 210L429 464Q430 480 439 487T462 495Q475 495 483 488ZM188 709Q182 720 182 729Q182 742 191 750T212 759Q233 759 243 736L313 572Q315 568 315 562Q315 554 310 550T296 545Q283 545
276 556L188 709Z" />
<glyph unicode="&#xfa;" glyph-name="uacute" horiz-adv-x="553" d="M475 495T483 488T490 464L455 23Q454 9 445 2T422 -5Q409 -5 402 2T395 23L400 85Q375 41 333 17T237 -7Q157 -7 115 34T72 157Q72 174 73 183L95 464Q96 480 105 487T128 495Q141 495 149
488T156 464L134 188Q133 180 133 164Q133 47 246 47Q317 47 360 90T409 210L429 464Q430 480 439 487T462 495Q475 495 483 488ZM313 545T305 545Q298 545 293 550T288 563Q288 571 293 577L431 742Q443 757 459 757Q472 757 482 748T492 726Q492 713 479 701L320
552Q313 545 305 545Z" />
<glyph unicode="&#xfb;" glyph-name="ucircumflex" horiz-adv-x="553" d="M475 495T483 488T490 464L455 23Q454 9 445 2T422 -5Q409 -5 402 2T395 23L400 85Q375 41 333 17T237 -7Q157 -7 115 34T72 157Q72 174 73 183L95 464Q96 480 105 487T128 495Q141 495
149 488T156 464L134 188Q133 180 133 164Q133 47 246 47Q317 47 360 90T409 210L429 464Q430 480 439 487T462 495Q475 495 483 488ZM227 553T220 549T207 545Q196 545 189 552T181 571Q181 580 187 589L282 734Q297 756 317 756Q338 756 348 734L420 588Q423
581 423 574Q423 562 414 554T394 545Q379 545 372 561L313 701L231 561Q227 553 220 549Z" />
<glyph unicode="&#xfc;" glyph-name="udieresis" horiz-adv-x="553" d="M475 495T483 488T490 464L455 23Q454 9 445 2T422 -5Q409 -5 402 2T395 23L400 85Q375 41 333 17T237 -7Q157 -7 115 34T72 157Q72 174 73 183L95 464Q96 480 105 487T128 495Q141 495 149
488T156 464L134 188Q133 180 133 164Q133 47 246 47Q317 47 360 90T409 210L429 464Q430 480 439 487T462 495Q475 495 483 488ZM208 610T196 621T184 651Q184 670 196 681T226 693Q244 693 256 681T269 651Q269 633 257 622T226 610Q208 610 196 621ZM374 610T362
621T349 651Q349 669 361 681T392 693Q410 693 422 681T434 651Q434 633 422 622T392 610Q374 610 362 621Z" />
<glyph unicode="&#xfd;" glyph-name="yacute" horiz-adv-x="509" d="M461 490T477 490Q489 490 497 483T506 463Q506 455 502 448L178 -167Q168 -185 149 -185Q138 -185 130 -179T122 -162Q122 -156 126 -149L205 1L39 449Q37 453 37 461Q37 473 46 481T67 489Q87
489 94 469L239 61L452 473Q461 490 477 490ZM292 545T284 545Q277 545 272 550T267 563Q267 571 272 577L410 742Q422 757 438 757Q451 757 461 748T471 726Q471 713 458 701L299 552Q292 545 284 545Z" />
<glyph unicode="&#xfe;" glyph-name="thorn" horiz-adv-x="573" d="M379 497T426 469T499 387T525 263Q525 183 497 122T417 27T298 -7Q239 -7 195 19T129 94L109 -157Q108 -171 99 -178T77 -185Q64 -185 56 -178T48 -157L115 679Q116 695 125 702T148 710Q161
710 169 703T177 679L155 411Q180 451 223 474T318 497Q379 497 426 469ZM373 47T417 104T461 263Q461 349 421 396T306 444Q229 444 185 386T140 225Q140 138 180 93T296 47Q373 47 417 104Z" />
<glyph unicode="&#xff;" glyph-name="ydieresis" horiz-adv-x="509" d="M461 490T477 490Q489 490 497 483T506 463Q506 455 502 448L178 -167Q168 -185 149 -185Q138 -185 130 -179T122 -162Q122 -156 126 -149L205 1L39 449Q37 453 37 461Q37 473 46 481T67
489Q87 489 94 469L239 61L452 473Q461 490 477 490ZM187 610T175 621T163 651Q163 670 175 681T205 693Q223 693 235 681T248 651Q248 633 236 622T205 610Q187 610 175 621ZM353 610T341 621T328 651Q328 669 340 681T371 693Q389 693 401 681T413 651Q413 633
401 622T371 610Q353 610 341 621Z" />
<glyph unicode="&#x2013;" glyph-name="endash" horiz-adv-x="500" d="M15 244T9 250T2 265Q2 274 9 280T29 287H479Q490 287 496 281T502 265Q502 256 495 250T476 244H26Q15 244 9 250Z" />
<glyph unicode="&#x2014;" glyph-name="emdash" horiz-adv-x="1000" d="M15 244T9 250T2 265Q2 274 9 280T29 287H979Q990 287 996 281T1002 265Q1002 256 995 250T976 244H26Q15 244 9 250Z" />
<glyph unicode="&#x2018;" glyph-name="quoteleft" horiz-adv-x="220" d="M160 606T171 593T182 561Q182 540 169 527T137 513Q117 513 104 528T90 572Q90 609 104 642T144 701Q154 711 165 711Q174 711 180 705T186 691Q186 681 177 672Q150 645 143 608Q160
606 171 593Z" />
<glyph unicode="&#x2019;" glyph-name="quoteright" horiz-adv-x="220" d="M163 710T176 695T189 652Q189 614 175 581T135 523Q125 513 114 513Q105 513 99 518T93 532Q93 542 102 551Q129 578 136 615Q119 617 108 630T97 662Q97 683 110 696T142 710Q163 710 176 695Z" />
<glyph unicode="&#x201a;" glyph-name="quotesinglbase" horiz-adv-x="220" d="M114 91T127 76T140 33Q140 -5 126 -38T86 -96Q76 -106 65 -106Q56 -106 50 -101T44 -87Q44 -77 53 -68Q80 -39 87 -4Q70 -2 59 11T48 43Q48 65 60 78T93 91Q114 91 127 76Z" />
<glyph unicode="&#x201c;" glyph-name="quotedblleft" horiz-adv-x="374" d="M160 606T171 593T182 561Q182 540 169 527T137 513Q117 513 104 528T90 572Q90 609 104 642T144 701Q154 711 165 711Q174 711 180 705T186 691Q186 681 177 672Q150 645 143 608Q160
606 171 593ZM314 606T325 593T336 561Q336 540 323 527T291 513Q271 513 258 528T244 572Q244 609 258 642T298 701Q308 711 319 711Q328 711 334 705T340 691Q340 681 331 672Q304 645 297 608Q314 606 325 593Z" />
<glyph unicode="&#x201d;" glyph-name="quotedblright" horiz-adv-x="374" d="M163 710T176 695T189 652Q189 614 175 581T135 523Q125 513 114 513Q105 513 99 518T93 532Q93 542 102 551Q129 578 136 615Q119 617 108 630T97 662Q97 683 110 696T142 710Q163
710 176 695ZM317 710T330 695T343 652Q343 614 329 581T289 523Q279 513 268 513Q259 513 253 518T247 532Q247 542 256 551Q283 578 290 615Q273 617 262 630T251 662Q251 683 264 696T296 710Q317 710 330 695Z" />
<glyph unicode="&#x201e;" glyph-name="quotedblbase" horiz-adv-x="374" d="M114 91T127 76T140 33Q140 -5 126 -38T86 -96Q76 -106 65 -106Q56 -106 50 -101T44 -87Q44 -77 53 -68Q80 -39 87 -4Q70 -2 59 11T48 43Q48 65 60 78T93 91Q114 91 127 76ZM268 91T281
76T294 33Q294 -5 280 -38T240 -96Q230 -106 219 -106Q210 -106 204 -101T198 -87Q198 -77 207 -68Q234 -39 241 -4Q224 -2 213 11T202 43Q202 65 214 78T247 91Q268 91 281 76Z" />
<glyph unicode="&#x2022;" glyph-name="bullet" horiz-adv-x="524" d="M215 88T173 111T107 175T82 265Q82 311 105 352T170 418T263 443Q311 443 352 420T419 356T444 265Q444 217 420 177T354 112T263 88Q215 88 173 111Z" />
<glyph unicode="&#x2039;" glyph-name="guilsinglleft" horiz-adv-x="247" d="M63 246Q58 256 58 263Q58 273 66 284L158 424Q168 439 185 439Q195 439 202 434T209 419Q209 412 205 405L122 265L181 125Q183 121 183 114Q183 105 176 99T158 92Q141 92 133 107L63 246Z" />
<glyph unicode="&#x203a;" glyph-name="guilsinglright" horiz-adv-x="247" d="M82 91T64 91Q54 91 48 96T41 111Q41 118 45 125L130 265L70 405Q68 409 68 416Q68 426 75 432T93 439Q110 439 117 424L188 284Q193 274 193 266Q193 256 186 246L92 107Q82 91 64 91Z" />
</font>
</defs>
</svg>
